Совершенно секретно. Лицом к событию. Александр Журбин [Сов сек 29.12.2013] (Олег Львов) [2013 г., Документальный, информация, публицистика, SATRip]


Статистика раздачи [Обновить пиров]
Размер:  652 MB   |    Зарегистрирован:  8 месяцев 22 дня   |    Скачан:  0 раз

Полного источника не было: Никогда

 
   
 
 
 

[Цитировать]

Совершенно секретно. Лицом к событию
Год выпуска: 2013 г.
Страна: Россия
Жанр: Документальный
Продолжительность: 00:55:50
Pежиссер: Олег Львов
Автор и ведущий: Елена Рыковцева
Перевод: Не требуется
Русские субтитры: нет
Производство: ЗАО "ТК "Совершенно секретно"
Описание: Телеканал «Совершенно секретно» и Радио Свобода представляют совместный проект — программу «Лицом к событию». С понедельника по пятницу лидер в той или иной сфере общественной жизни — человек известный и информированный — под огнем вопросов на главную тему дня. Вопросы задают журналисты Радио Свобода.
Гость студии — Александр Журбин
«Александр Журбин: попытка автопортрета» — это четыре серии, в которых рассказывается о разных гранях творчества композитора: о его музыке для кино и для театра, о его симфониях и эстрадных песнях. Фильм был показан на фестивале «Артдокфест», который накануне завершился в Москве. В программе «Лицом к событию» композитор Александр Журбин подводит итоги этого фестиваля и говорит о фильме, посвященном его собственной судьбе.

Релиз группы:
Качество: SATRip
Формат: AVI
Видео: 704x528 (1.33:1), 25 fps, XviD ~1495 kbps, 0.16 bit/pixel
Аудио: 48 kHz, MPEG Layer 3, 2 ch, ~128 kbps

MediaInfo:

Общее
Полное имя : G:\SS\Sov_sek-Licom_k_sobytiju-Aleksandr_Zhurbin_[rutracker.org].avi
Формат : AVI
Формат/Информация : Audio Video Interleave
Размер файла : 652 Мбайт
Продолжительность : 55 м.
Общий поток : 1633 Кбит/сек
Программа кодирования : VirtualDubMod 1.6.0.0 SURROUND (build 2560/release)
Библиотека кодирования : VirtualDubMod build 2560/release
Видео
Идентификатор : 0
Формат : MPEG-4 Visual
Профиль формата : Advanced Simple@L5
Параметр BVOP формата : 2
Параметр QPel формата : Нет
Параметр GMC формата : Без точки перехода
Параметр матрицы формата : Default (MPEG)
Идентификатор кодека : XVID
Идентификатор кодека/Подсказка : XviD
Продолжительность : 55 м.
Битрейт : 1496 Кбит/сек
Ширина : 704 пикселя
Высота : 528 пикселей
Соотношение сторон : 5:4
Соотношение сторон в оригинале : 4:3
Частота кадров : 25,000 кадров/сек
Цветовое пространство : YUV
Субдискретизация насыщенности : 4:2:0
Битовая глубина : 8 бит
Тип развёртки : Прогрессивная
Метод сжатия : С потерями
Бит/(Пиксели*Кадры) : 0.161
Размер потока : 597 Мбайт (92%)
Библиотека кодирования : XviD 1.2.1 (UTC 2008-12-04)
Аудио
Идентификатор : 1
Формат : MPEG Audio
Версия формата : Version 1
Профиль формата : Layer 3
Режим : Joint stereo
Расширение режима : MS Stereo
Идентификатор кодека : 55
Идентификатор кодека/Подсказка : MP3
Продолжительность : 55 м.
Вид битрейта : Постоянный
Битрейт : 128 Кбит/сек
Каналы : 2 канала
Частота : 48,0 КГц
Метод сжатия : С потерями
Размер потока : 51,1 Мбайт (8%)
Выравнивание : Разделение по промежуткам
Продолжительность промежутка : 40 мс. (1,00 видеокадр)
Время предзагрузки промежутка : 500 мс.

Скриншоты. Превью, увеличение по клику:

На раздаче круглосуточно, ~20 Mb/s. > [Что от меня зависит, сделал. Остальное зависит от Вас, трекера и наших провайдеров.]
[teatrix.ru].t18040.torrent 
Торрент: Зарегистрирован [ 2016-03-17 00:45 ] · A73A0012844332DDA30083AF795448357BDD3038

Скачать .torrent

Скачать

13 KB

Статус: проверено
Скачан: 0 раз
Размер: 652 MB
terms.php



Быстрый ответ

Имя:

      
Для отправки сообщений необходимо включить JavaScript
Показать сообщения:    

Текущее время: 08-Дек 08:59

Часовой пояс: UTC + 3


Вы можете начинать темы
Вы можете отвечать на сообщения
Вы не можете редактировать свои сообщения
Вы не можете удалять свои сообщения
Вы не можете голосовать в опросах
Вы не можете прикреплять файлы к сообщениям
Вы можете скачивать файлы