(Sacred, Choral) Johann Sebastian Bach - Mass B minor [H-moll] (Netherlands Chamber Choir, Orchestra of the Eighteenth Century, Frans Bruggen [Brüggen]) - 1990, FLAC (image+.cue) lossless


Статистика раздачи [Обновить пиров]
Размер:  539 MB   |    Зарегистрирован:  8 месяцев 25 дней   |    Скачан:  0 раз

Полного источника не было: Никогда

 
   
 
 
 

[Цитировать]

Johann Sebastian Bach - Mass B minorNetherlands Chamber Choir , Orchestra of the Eighteenth Century, Frans Brüggen
Жанр: Sacred, Choral
Страна-производитель диска: Germany
Год издания диска: 1990
Издатель (лейбл): Philips Records
Номер по каталогу: 426 238-2
Дата записи: 1989
Аудиокодек: FLAC
Тип рипа: image+.cue
Битрейт аудио: lossless
Продолжительность: 1:44:20
Источник: скачано с odeonmusic
Наличие сканов в содержимом раздачи: да
Исполнители:
Jennifer Smith - soprano
Michael Chance - counter-tenor
Nico van der Meel - tenor
Harry van der Kamp - bass
Netherlands Chamber Choir
Orchestra of the 18th Century
Frans Brüggen - conductor
Треклист:
CD 1
01 I MISSA - KYRIE : Kyrie eleison - Coro (a 5) 08:55
02 Christe eleison - Duetto (Soprano I, II) 05:08
03 Kyrie eleison - Coro (a 4) 03:54
04 I MISSA - GLORIA : Gloria in excelsis Deo - Coro (a 5) 01:39
05 Et in terra pax - Coro (a 5) 04:56
06 Laudamus te - Aria (Soprano II) 04:24
07 Gratias agimus tibi - Coro (a 4) 03:02
08 Domine Deus - Duetto (Soprano I, Tenore) 05:44
09 Qui tollis pecata mundi - Coro (a 4) 02:59
10 Qui sedes ad dexteram Patris - Aria (Alto) 04:32
11 Quoniam tu solus sanctus - Aria (Basso) 04:13
12 Cum sancto spirito - Coro (a 5) 03:50
CD2
01 II CREDO : Credo in unum Deum - Coro (a 5) 02:00
02 Patrem omnipotentem - Coro (a 4) 01:46
03 Et in unum Dominum - Duetto (Soprano I, Alto) 04:30
04 Et incarnatus est - Coro (a 5) 03:05
05 Crucifixus - Coro (a 4) 02:59
06 Et resurrexit - Coro (a 5) 03:46
07 Et in Spiritum Sanctum - Aria (Basso) 05:07
08 Confiteor unum baptisma - Coro (a 5) 03:02
09 Et expecto resurrectionem - Coro (a 5) 03:45
10 III SANCTUS : Sanctus - Coro (a 6) 04:10
11 IV PARTE : Osanna in excelsis - Coro (a 8) 02:26
12 Benedictus - Aria (Tenore) 03:59
13 Osanna in excelsis - Coro (a 8) da capo 02:25
14 Agnus Dei - Aria (Alto) 05:08
15 Dona nobis pacem - Coro (a 4) 02:56

Лог создания рипа

Лог создания рипа CD1

Exact Audio Copy V1.0 beta 3 from 29. August 2011
Journal d'extraction EAC depuis 9. Janvier 2013, 20:59
Orchestra of the 18th Century - Frans Brüggen / Bach J.S. - Mass in B minor - (CD 01)
Lecteur utilisé : HL-DT-STDVD-RW_GSA-H11N Adapter: 0 ID: 0
Mode lecture : : Vérouiller
Utiliser flux précis : Oui
Vider le cache audio : Oui
Utiliser les pointeurs C2 : Non
Correction offset écriture : : 667
Lecture étendue en lead-in et lead-out : Non
Remplacer les samples manquants par du silence : Oui
Effacer les blocs silencieux situés en début et fin : Non
Échantillons null utilisés dans les calculs CRC : Oui
Interface utilisée : Interface native Win32 pour Win NT & 2000
Format de sortie utilisé : : Encodeur défini par l'utilisateur
Débit choisi : 768 kBit/s
Qualité : Haut
Ajouter ID3 tag : Non
Ligne de commande du compresseur : C:\Program Files\Exact Audio Copy\FLAC\FLAC.EXE
Options de commande additionnelle : : -6 -V -T "ARTIST=%artist%" -T "TITLE=%title%" -T "ALBUM=%albumtitle%" -T "DATE=%year%" -T "TRACKNUMBER=%tracknr%" -T "GENRE=%genre%" -T "COMMENT=%comment%" -T "BAND=%albuminterpret%" -T "ALBUMARTIST=%albuminterpret%" -T "COMPOSER=%composer%" %haslyrics%--tag-from-file=LYRICS="%lyricsfile%"%haslyrics% -T "DISCNUMBER=%cdnumber%" -T "TOTALDISCS=%totalcds%" -T "TOTALTRACKS=%numtracks%" %hascover%--picture="%coverfile%"%hascover% %source% -o %dest%
TOC du CD extrait
Track | Démarrer | Longueur | Secteur de début | Secteur de fin
-----------------------------------------------------------------
1 | 0:00.33 | 8:55.00 | 33 | 40157
2 | 8:55.33 | 5:08.00 | 40158 | 63257
3 | 14:03.33 | 3:54.00 | 63258 | 80807
4 | 17:57.33 | 1:39.62 | 80808 | 88294
5 | 19:37.20 | 4:56.13 | 88295 | 110507
6 | 24:33.33 | 4:24.37 | 110508 | 130344
7 | 28:57.70 | 3:02.63 | 130345 | 144057
8 | 32:00.58 | 5:44.00 | 144058 | 169857
9 | 37:44.58 | 2:59.50 | 169858 | 183332
10 | 40:44.33 | 4:32.37 | 183333 | 203769
11 | 45:16.70 | 4:13.08 | 203770 | 222752
12 | 49:30.03 | 3:50.67 | 222753 | 240069
Propriétés États et Erreurs
Gammes sélectionnées
Nom fichier G:\MUSIQUE S 2\ZZZ-MES_RIPS\Orchestra of the 18th Century - Frans Brüggen - Bach J.S. - Mass in B minor - (CD 01).wav
Niveau max 99.2 %
Vitesse d'extraction 2.0 X
qualité intervalle 100.0 %
Copie CRC 8ED4DD86
Copie Ok
Pas d'erreur apparue
Résumé AccurateRip
Piste 1 extrait avec exactitude (confiance 10) [48DE02EF] (AR v1)
Piste 2 extrait avec exactitude (confiance 10) [3A3E03C4] (AR v1)
Piste 3 extrait avec exactitude (confiance 10) [7A3A4F7D] (AR v1)
Piste 4 extrait avec exactitude (confiance 10) [8AF4C612] (AR v1)
Piste 5 extrait avec exactitude (confiance 10) [D060AAC8] (AR v1)
Piste 6 extrait avec exactitude (confiance 9) [72F8F760] (AR v1)
Piste 7 extrait avec exactitude (confiance 10) [DCDEA696] (AR v1)
Piste 8 extrait avec exactitude (confiance 10) [9C08FBFC] (AR v1)
Piste 9 extrait avec exactitude (confiance 10) [A2B6261E] (AR v1)
Piste 10 extrait avec exactitude (confiance 10) [6AD422FC] (AR v1)
Piste 11 extrait avec exactitude (confiance 10) [2BE574B2] (AR v1)
Piste 12 extrait avec exactitude (confiance 10) [268E53AE] (AR v1)
Toutes pistes extraites exactement
Fin du rapport d'état

Лог создания рипа CD2

Exact Audio Copy V1.0 beta 3 from 29. August 2011
Journal d'extraction EAC depuis 9. Janvier 2013, 21:26
Orchestra of the 18th Century - Frans Brüggen / Bach J.S. - Mass in B minor (CD 02)
Lecteur utilisé : HL-DT-STDVD-RW_GSA-H11N Adapter: 0 ID: 0
Mode lecture : : Vérouiller
Utiliser flux précis : Oui
Vider le cache audio : Oui
Utiliser les pointeurs C2 : Non
Correction offset écriture : : 667
Lecture étendue en lead-in et lead-out : Non
Remplacer les samples manquants par du silence : Oui
Effacer les blocs silencieux situés en début et fin : Non
Échantillons null utilisés dans les calculs CRC : Oui
Interface utilisée : Interface native Win32 pour Win NT & 2000
Format de sortie utilisé : : Encodeur défini par l'utilisateur
Débit choisi : 768 kBit/s
Qualité : Haut
Ajouter ID3 tag : Non
Ligne de commande du compresseur : C:\Program Files\Exact Audio Copy\FLAC\FLAC.EXE
Options de commande additionnelle : : -6 -V -T "ARTIST=%artist%" -T "TITLE=%title%" -T "ALBUM=%albumtitle%" -T "DATE=%year%" -T "TRACKNUMBER=%tracknr%" -T "GENRE=%genre%" -T "COMMENT=%comment%" -T "BAND=%albuminterpret%" -T "ALBUMARTIST=%albuminterpret%" -T "COMPOSER=%composer%" %haslyrics%--tag-from-file=LYRICS="%lyricsfile%"%haslyrics% -T "DISCNUMBER=%cdnumber%" -T "TOTALDISCS=%totalcds%" -T "TOTALTRACKS=%numtracks%" %hascover%--picture="%coverfile%"%hascover% %source% -o %dest%
TOC du CD extrait
Track | Démarrer | Longueur | Secteur de début | Secteur de fin
-----------------------------------------------------------------
1 | 0:00.33 | 2:00.37 | 33 | 9069
2 | 2:00.70 | 1:46.63 | 9070 | 17082
3 | 3:47.58 | 4:30.50 | 17083 | 37382
4 | 8:18.33 | 3:05.25 | 37383 | 51282
5 | 11:23.58 | 2:59.25 | 51283 | 64732
6 | 14:23.08 | 3:46.50 | 64733 | 81732
7 | 18:09.58 | 5:07.12 | 81733 | 104769
8 | 23:16.70 | 3:02.38 | 104770 | 118457
9 | 26:19.33 | 3:45.50 | 118458 | 135382
10 | 30:05.08 | 4:10.50 | 135383 | 154182
11 | 34:15.58 | 2:26.25 | 154183 | 165157
12 | 36:42.08 | 3:59.25 | 165158 | 183107
13 | 40:41.33 | 2:25.12 | 183108 | 193994
14 | 43:06.45 | 5:08.25 | 193995 | 217119
15 | 48:14.70 | 2:56.63 | 217120 | 230382
Propriétés États et Erreurs
Gammes sélectionnées
Nom fichier G:\MUSIQUE S 2\ZZZ-MES_RIPS\Orchestra of the 18th Century - Frans Brüggen - Bach J.S. - Mass in B minor (CD 02).wav
Niveau max 98.4 %
Vitesse d'extraction 6.7 X
qualité intervalle 100.0 %
Copie CRC 74E296F4
Copie Ok
Pas d'erreur apparue
Résumé AccurateRip
Piste 1 extrait avec exactitude (confiance 9) [A1C6E6BA] (AR v1)
Piste 2 extrait avec exactitude (confiance 9) [B70F2CF3] (AR v1)
Piste 3 extrait avec exactitude (confiance 9) [7173480E] (AR v1)
Piste 4 extrait avec exactitude (confiance 9) [E52E20BD] (AR v1)
Piste 5 extrait avec exactitude (confiance 9) [C8D7BDB3] (AR v1)
Piste 6 extrait avec exactitude (confiance 9) [F9847686] (AR v1)
Piste 7 extrait avec exactitude (confiance 9) [EA3DFA1E] (AR v1)
Piste 8 extrait avec exactitude (confiance 9) [5056DBF3] (AR v1)
Piste 9 extrait avec exactitude (confiance 9) [ADA9FB1C] (AR v1)
Piste 10 extrait avec exactitude (confiance 9) [DF261C05] (AR v1)
Piste 11 extrait avec exactitude (confiance 9) [279227C1] (AR v1)
Piste 12 extrait avec exactitude (confiance 9) [08DEFC0F] (AR v1)
Piste 13 extrait avec exactitude (confiance 9) [1BC0DCBA] (AR v1)
Piste 14 extrait avec exactitude (confiance 9) [11FAE513] (AR v1)
Piste 15 extrait avec exactitude (confiance 9) [A724769E] (AR v1)
Toutes pistes extraites exactement
Fin du rapport d'état

Лог проверки качества

AUDIOCHECKER v2.0 beta (build 457) - by Dester - opdester@freemail.hu
~~~~~~~~~~~~~~~~~~~~~~~~~~~~~~~~~~
Started at: понедельник, 06. 01. 2014. - 12:02.29
2 files found
1 -===- C:\Downloads\Torrent\Bach - Mass B minor (Bruggen)\CD 1\Orchestra of the 18th Century - Frans Bruggen - Bach J.S. - Mass in B minor - (CD 01).flac
Extracted successfully
Conclusion: this track is CDDA with probability 100%
Tempfile successfully deleted.
2 -===- C:\Downloads\Torrent\Bach - Mass B minor (Bruggen)\CD 2\Orchestra of the 18th Century - Frans Bruggen - Bach J.S. - Mass in B minor (CD 02).flac
Extracted successfully
Conclusion: this track is CDDA with probability 100%
Tempfile successfully deleted.
Finished at: понедельник, 06. 01. 2014. - 12:16.06 (operation time: 0:13.36)
[teatrix.ru].t18042.torrent 
Торрент: Зарегистрирован [ 2016-03-17 00:45 ] · 93734AB1F2465078EBB118F9F626803045250B10

Скачать .torrent

Скачать

13 KB

Статус: проверено
Скачан: 0 раз
Размер: 539 MB
terms.php



Быстрый ответ

Имя:

      
Для отправки сообщений необходимо включить JavaScript
Показать сообщения:    

Текущее время: 11-Дек 16:53

Часовой пояс: UTC + 3


Вы можете начинать темы
Вы можете отвечать на сообщения
Вы не можете редактировать свои сообщения
Вы не можете удалять свои сообщения
Вы не можете голосовать в опросах
Вы не можете прикреплять файлы к сообщениям
Вы можете скачивать файлы