(Classical, trombone) Trombone Fantasy - Works for Trombone and Chinese Orchestra: Yiu-Kwong Chung, Christian Lindberg, Qu Chunquan - Christian Lindberg, Taipei Chinese Orchestra, En Shao - 2011, FLAC (image+.cue) lossless


Статистика раздачи [Обновить пиров]
Размер:  281 MB   |    Зарегистрирован:  8 месяцев 22 дня   |    Скачан:  0 раз

Полного источника не было: Никогда

 
   
 
 
 

[Цитировать]

Trombone Fantasy - Works for Trombone and Chinese Orchestra: Yiu-Kwong Chung, Christian Lindberg, Qu Chunquan - Christian Lindberg, Taipei Chinese Orchestra, En Shao
Жанр: Classical, trombone
Страна-производитель диска: Sweden
Год издания диска: 2011
Издатель (лейбл): BIS
Номер по каталогу: BIS-CD-1888
Дата записи: 2009
Аудиокодек: FLAC
Тип рипа: image+.cue
Битрейт аудио: lossless
Продолжительность: 66:32
Источник: собственный рип
Наличие сканов в содержимом раздачи: да
Треклист:
Yiu-Kwong Chung (b. 1956)
[1] Mongolian Fantasy (2009)
Traditional, arranged by Yiu-Kwong Chung
[2] Cursing General Cao Cao (2009)
Christian Lindberg (b. 1958)
[3] The Wild Rose (2008–09)
for narrator and Chinese orchestra
Yiu-Kwong Chung
[4] Recueillement (2009)
Concertino for trombone and Chinese orchestra
Christian Lindberg, orchestrated by Qu Chunquan (b. 1941)
[5] Kundraan (2005)
Исполнители:
Christian Lindberg trombone and narrator
Taipei Chinese Orchestra
En Shao
conductor

Лог создания рипа

Exact Audio Copy V1.0 beta 3 from 29. August 2011
EAC extraction logfile from 19. June 2013, 0:19
Christian Lindberg; Taipei Chinese Orchestra, En Shao / Trombone Fantasy
Used drive : HL-DT-STDVDRAM GSA-4083N Adapter: 1 ID: 0
Read mode : Secure
Utilize accurate stream : Yes
Defeat audio cache : Yes
Make use of C2 pointers : No
Read offset correction : 667
Overread into Lead-In and Lead-Out : No
Fill up missing offset samples with silence : Yes
Delete leading and trailing silent blocks : No
Null samples used in CRC calculations : Yes
Used interface : Native Win32 interface for Win NT & 2000
Used output format : User Defined Encoder
Selected bitrate : 896 kBit/s
Quality : High
Add ID3 tag : No
Command line compressor : C:\Program Files\Exact Audio Copy\Flac\flac.exe
Additional command line options : -V -8 %source%
TOC of the extracted CD
Track | Start | Length | Start sector | End sector
---------------------------------------------------------
1 | 0:00.00 | 15:15.54 | 0 | 68678
2 | 15:15.54 | 8:01.44 | 68679 | 104797
3 | 23:17.23 | 11:04.59 | 104798 | 154656
4 | 34:22.07 | 12:22.72 | 154657 | 210378
5 | 46:45.04 | 19:47.58 | 210379 | 299461
Range status and errors
Selected range
Filename J:\New Music\Trombone Fantasy - Lindberg\Trombone Fantasy.wav
Peak level 99.9 %
Extraction speed 4.3 X
Range quality 100.0 %
Test CRC 457BF5E6
Copy CRC 457BF5E6
Copy OK
No errors occurred
End of status report
==== Log checksum 0D60903D750437CB1DF5CB426150BA3DD624F3BD383828C45CE0FECDDEEE8EC4 ====
[teatrix.ru].t18044.torrent 
Торрент: Зарегистрирован [ 2016-03-17 00:45 ] · 4F8DF50E503BAA67FF8194D2B9B86A6F2376C5C7

Скачать .torrent

Скачать

23 KB

Статус: проверено
Скачан: 0 раз
Размер: 281 MB
terms.php



Быстрый ответ

Имя:

      
Для отправки сообщений необходимо включить JavaScript
Показать сообщения:    

Текущее время: 08-Дек 23:11

Часовой пояс: UTC + 3


Вы можете начинать темы
Вы можете отвечать на сообщения
Вы не можете редактировать свои сообщения
Вы не можете удалять свои сообщения
Вы не можете голосовать в опросах
Вы не можете прикреплять файлы к сообщениям
Вы можете скачивать файлы