(Classical,Orchestra) Fryderyk Chopin:Concerto n.1 per pianoforte e orchestra op.11,Mazurche op.59,Scherzo op.39,Studi op.10,Notturno op.55 - Martha Argerich - 1998, FLAC (image+.cue) lossless


Статистика раздачи [Обновить пиров]
Размер:  233 MB   |    Зарегистрирован:  8 месяцев 19 дней   |    Скачан:  0 раз

Полного источника не было: Никогда

 
   
 
 
 

[Цитировать]

Fryderyk Chopin:Concerto n.1 per pianoforte e orchestra op.11,Mazurche op.59,Scherzo op.39,Studi op.10,Notturno op.55 - Martha Argerich
Жанр: Classical,Orchestra
Год издания диска: 1998
Аудиокодек: FLAC
Тип рипа: image+.cue
Битрейт аудио: lossless
Продолжительность: 62:30
Источник: собственный рип
Наличие сканов в содержимом раздачи: да
Треклист:
01. Allegro Maestoso [0:16:32.00]
02. Larghetto [0:09:27.25]
03. Rondo Vivace [0:09:25.00]
04. Mazurca .37 Op.59 N.2 [0:02:41.00]
05. Mazurca N.38 Op.59 N.3 [0:03:17.50]
06. Scherzo N.3 Op.39 [0:07:06.00]
07. Grande Valzer Brillante Op.34 N.1 [0:05:15.00]
08. Sudio N.1 Op.10 [0:01:54.25]
09. Sudio N.10 Op.10 [0:04:43.50]
10. Notturno N.16 Op.55 N.2 [0:02:08.00]
Исполнители:
Martha Argerich - pianoforte,piano,klavier
1-3 Warsaw National Philharmonic Orchestra.Conductor - Witold Rowicki

Лог создания рипа

Exact Audio Copy V1.0 beta 3 from 29. August 2011
Отчёт EAC об извлечении, выполненном 5. сентября 2013, 21:46
Witold Rowicki / Chopin
Дисковод: TSSTcorpCDDVDW SH-224DB Adapter: 1 ID: 0
Режим чтения : Достоверность
Использование точного потока : Да
Отключение кэша аудио : Да
Использование указателей C2 : Нет
Коррекция смещения при чтении : 6
Способность читать области Lead-in и Lead-out : Нет
Заполнение пропущенных сэмплов тишиной : Да
Удаление блоков с тишиной в начале и конце : Нет
При вычислениях CRC использовались нулевые сэмплы : Да
Интерфейс : Встроенный Win32-интерфейс для Win NT/2000
Выходной формат : Пользовательский кодировщик
Выбранный битрейт : 768 kBit/s
Качество : Высокий
Добавление ID3-тега : Нет
Утилита сжатия : C:\Program Files\Exact Audio Copy\Flac\flac.exe
Дополнительные параметры : -V -8 -T "Date=%year%" -T "Genre=%genre%" %source%
TOC извлечённого CD
Трек | Старт | Длительность | Начальный сектор | Конечный сектор
---------------------------------------------------------------------
1 | 0:00.33 | 16:32.00 | 33 | 74432
2 | 16:32.33 | 9:27.25 | 74433 | 116982
3 | 25:59.58 | 9:25.00 | 116983 | 159357
4 | 35:24.58 | 2:41.00 | 159358 | 171432
5 | 38:05.58 | 3:17.50 | 171433 | 186257
6 | 41:23.33 | 7:06.00 | 186258 | 218207
7 | 48:29.33 | 5:15.00 | 218208 | 241832
8 | 53:44.33 | 1:54.25 | 241833 | 250407
9 | 55:38.58 | 4:43.50 | 250408 | 271682
10 | 60:22.33 | 2:08.00 | 271683 | 281282
Характеристики диапазона извлечения и сообщения об ошибках
Выбранный диапазон
Имя файла D:\lo$$le$$\W.Rowicki\Witold Rowicki - Chopin.wav
Пиковый уровень 100.0 %
Скорость извлечения 2.4 X
Качество диапазона 100.0 %
CRC теста 4D93C3DD
CRC копии 4D93C3DD
Копирование... OK
Ошибок не произошло
Конец отчёта
==== Контрольная сумма отчёта B338A352C7277478FEDECBDAE04C83EA1D4F46CF375EB0EEEF53D689FAB36683 ====
[teatrix.ru].t18045.torrent 
Торрент: Зарегистрирован [ 2016-03-17 00:45 ] · 6E806B615F435F5A98D9CEE7C1F18C142D53EC70

Скачать .torrent

Скачать

19 KB

Статус: проверено
Скачан: 0 раз
Размер: 233 MB
terms.php



Быстрый ответ

Имя:

      
Для отправки сообщений необходимо включить JavaScript
Показать сообщения:    

Текущее время: 05-Дек 01:25

Часовой пояс: UTC + 3


Вы можете начинать темы
Вы можете отвечать на сообщения
Вы не можете редактировать свои сообщения
Вы не можете удалять свои сообщения
Вы не можете голосовать в опросах
Вы не можете прикреплять файлы к сообщениям
Вы можете скачивать файлы