(Classical, concerto) The Hyperion Romantic Piano Concerto – Vol. 44: Melcer (Plowright, Konig) - 2008, FLAC (image+.cue) lossless


Статистика раздачи [Обновить пиров]
Размер:  265 MB   |    Зарегистрирован:  8 месяцев 18 дней   |    Скачан:  0 раз

Полного источника не было: Никогда

 
   
 
 
 

[Цитировать]

The Hyperion Romantic Piano Concerto – Vol. 44: Melcer (Plowright, König)
Жанр: Classical, concerto
Страна-производитель диска: Англия
Год издания диска: 2008
Издатель (лейбл): Hyperion
Номер по каталогу: 67630
Дата записи: 7 — 8 марта 2007 г., Глазго.
Аудиокодек: FLAC
Тип рипа: image+.cue
Битрейт аудио: lossless
Продолжительность: 01:06:41
Источник: odeonmusic
Наличие сканов в содержимом раздачи: да
Треклист:
Генрик Мельцер-Щавиньский (1869 — 1928).
Фортепианный концерт № 1 e-moll (1892 — 1894).
01. I. Maestoso più mosso [13:57].
02. II. Andantino. — [04:36].
03. III. Vivo, ma non troppo e poi molto accelerando [10:16].
Фортепианный концерт № 2 c-moll (1897 — 1898).
04. I. Allegro moderato [14:42].
05. II. Andante non troppo lento [12:19].
06. III. Allegro con fuoco [10:15].
Исполнители:
Jonathan Plowright (фортепиано).
BBC Scottish Symphony Orchestra.
Дирижер Christoph König.

Лог создания рипа

Exact Audio Copy V1.0 beta 3 from 29. August 2011
EAC extraction logfile from 8. May 2012, 10:57
Jonathan Plowright / Melcer - Piano Concertos Nos. 1 & 2 - Plowright
Used drive : HL-DT-STDVDRAM GSA-H10A Adapter: 0 ID: 0
Read mode : Secure
Utilize accurate stream : Yes
Defeat audio cache : Yes
Make use of C2 pointers : No
Read offset correction : 667
Overread into Lead-In and Lead-Out : No
Fill up missing offset samples with silence : Yes
Delete leading and trailing silent blocks : No
Null samples used in CRC calculations : Yes
Used interface : Native Win32 interface for Win NT & 2000
Used output format : User Defined Encoder
Selected bitrate : 1024 kBit/s
Quality : High
Add ID3 tag : No
Command line compressor : C:\Program Files\Exact Audio Copy\Flac\flac.exe
Additional command line options : -8 -V -T "TITLE=%title%" -T "ARTIST=%artist%" -T "ALBUMARTIST=%albumartist%" -T "ALBUM=%albumtitle%" -T "DATE=%year%" -T "TRACKNUMBER=%tracknr%" -T "TRACKTOTAL=%numtracks%" -T "GENRE=%genre%" -T "COMMENT=%comment%" -T "PERFORMER=%albuminterpret%" -T "COMPOSER=%composer%" %source% -o %dest%
TOC of the extracted CD
Track | Start | Length | Start sector | End sector
---------------------------------------------------------
1 | 0:00.00 | 14:03.60 | 0 | 63284
2 | 14:03.60 | 4:36.67 | 63285 | 84051
3 | 18:40.52 | 10:32.08 | 84052 | 131459
4 | 29:12.60 | 14:49.02 | 131460 | 198136
5 | 44:01.62 | 12:22.06 | 198137 | 253792
6 | 56:23.68 | 10:15.08 | 253793 | 299925
Range status and errors
Selected range
Filename F:\Ripped general\[9857] Melcer - Piano Concertos Nos. 1 & 2 - Plowright\Melcer - Piano Concertos Nos. 1 & 2 - Plowright.wav
Peak level 99.3 %
Extraction speed 7.7 X
Range quality 100.0 %
Test CRC CBA88C2E
Copy CRC CBA88C2E
Copy OK
No errors occurred
AccurateRip summary
Track 1 accurately ripped (confidence 5) [DAB3CA72] (AR v1)
Track 2 accurately ripped (confidence 5) [84A62FDD] (AR v1)
Track 3 accurately ripped (confidence 5) [4D27F3B9] (AR v1)
Track 4 accurately ripped (confidence 5) [7611EF08] (AR v1)
Track 5 accurately ripped (confidence 5) [2136E7C9] (AR v1)
Track 6 accurately ripped (confidence 5) [85ED269C] (AR v1)
All tracks accurately ripped
End of status report

Содержание индексной карты (.CUE)

REM GENRE Classical
REM DATE 2008
REM DISCID 4C0F9F06
REM COMMENT "ExactAudioCopy v1.0b3"
PERFORMER "Jonathan Plowright & Christoph Konig"
TITLE "Melcer – Piano Concertos Nos. 1 & 2 – Plowright"
FILE "Melcer – Piano Concertos Nos. 1 & 2 – Plowright.flac" WAVE
TRACK 01 AUDIO
TITLE "Piano Concerto No. 1 in E minor (1892 - 1894) - I. Maestoso"
PERFORMER "Jonathan Plowright & Christoph Konig"
INDEX 01 00:00:00
TRACK 02 AUDIO
TITLE "Piano Concerto No. 1 in E minor (1892 - 1894) - II. Andantino -"
PERFORMER "Jonathan Plowright & Christoph Konig"
INDEX 00 13:57:05
INDEX 01 14:03:60
TRACK 03 AUDIO
TITLE "Piano Concerto No. 1 in E minor (1892 - 1894) - III. Vivo ma non troppo e poi molto accelerando"
PERFORMER "Jonathan Plowright & Christoph Konig"
INDEX 01 18:40:52
TRACK 04 AUDIO
TITLE "Piano Concerto No. 2 in C minor (1898) - I. Allegro moderato"
PERFORMER "Jonathan Plowright & Christoph Konig"
INDEX 00 28:57:05
INDEX 01 29:12:60
TRACK 05 AUDIO
TITLE "Piano Concerto No. 2 in C minor (1898) - II. Andante non troppo lento"
PERFORMER "Jonathan Plowright & Christoph Konig"
INDEX 00 43:55:05
INDEX 01 44:01:62
TRACK 06 AUDIO
TITLE "Piano Concerto No. 2 in C minor (1898) - III. Allegro con fuoco"
PERFORMER "Jonathan Plowright & Christoph Konig"
INDEX 00 56:21:06
INDEX 01 56:23:68
-Генрик Мельцер-Щавиньский:
Фортепианный концерт № 1 (Michael Ponti, Tadeusz Strugała).
Фортепианные концерты № 1 и 2 (Joanna Ławrynowicz, Ruben Silva).
Полное собрание сочинений для камерного ансамбля (The Warsaw Trio).
Полное собрание оригинальных фортепианных сочинений (Matti Asikainen).
[teatrix.ru].t18051.torrent 
Торрент: Зарегистрирован [ 2016-03-17 00:44 ] · 6BBBD5803329F7F89E25E0DDD6090B03880C7BEA

Скачать .torrent

Скачать

12 KB

Статус: проверено
Скачан: 0 раз
Размер: 265 MB
terms.php



Быстрый ответ

Имя:

      
Для отправки сообщений необходимо включить JavaScript
Показать сообщения:    

Текущее время: 04-Дек 04:56

Часовой пояс: UTC + 3


Вы можете начинать темы
Вы можете отвечать на сообщения
Вы не можете редактировать свои сообщения
Вы не можете удалять свои сообщения
Вы не можете голосовать в опросах
Вы не можете прикреплять файлы к сообщениям
Вы можете скачивать файлы