(Classical) Mozart, Rossini, Kreutzer, Crusell - Bassoon Concertos - Karen Geoghegan, BBC Philharmonic, Gianandrea Noseda - 2010, FLAC (image+.cue) lossless


Статистика раздачи [Обновить пиров]
Размер:  231 MB   |    Зарегистрирован:  8 месяцев 18 дней   |    Скачан:  0 раз

Полного источника не было: Никогда

 
   
 
 
 

[Цитировать]

Mozart, Rossini, Kreutzer, Crusell - Bassoon Concertos - Karen Geoghegan, BBC Philharmonic, Gianandrea Noseda
Жанр: Classical
Страна-производитель диска: UK
Год издания диска: 2010
Издатель (лейбл): Chandos Records
Номер по каталогу: CHAN 10613
Дата записи: 2009, 2010
Аудиокодек: FLAC
Тип рипа: image+.cue
Битрейт аудио: lossless
Продолжительность: 63:43
Источник: собственный рип
Наличие сканов в содержимом раздачи: да
Треклист:
Wolfgang Amadeus Mozart (1756–1791)
[1]-[3] Bassoon Concerto in B flat, KV 191
Gioachino Rossini (1792–1868)
[4]-[6] Bassoon Concerto
Conradin Kreutzer (1780–1849)
[7]-[9] Fantasie for Bassoon and Orchestra
Bernhard Henrik Crusell (1775–1838)
[10]-[12] Bassoon Concertino in B flat
Исполнители:
Karen Geoghegan bassoon
BBC Philharmonic
Gianandrea Noseda

Лог создания рипа

Exact Audio Copy V1.0 beta 3 from 29. August 2011
EAC extraction logfile from 5. January 2014, 13:14
Karen Geoghegan, BBC Philharmonic Orchestra, Gianandrea Noseda / Bassoon Concertos
Used drive : HL-DT-STDVDRAM GSA-4083N Adapter: 1 ID: 0
Read mode : Secure
Utilize accurate stream : Yes
Defeat audio cache : Yes
Make use of C2 pointers : No
Read offset correction : 667
Overread into Lead-In and Lead-Out : No
Fill up missing offset samples with silence : Yes
Delete leading and trailing silent blocks : No
Null samples used in CRC calculations : Yes
Used interface : Native Win32 interface for Win NT & 2000
Used output format : User Defined Encoder
Selected bitrate : 896 kBit/s
Quality : High
Add ID3 tag : No
Command line compressor : C:\Program Files\Exact Audio Copy\Flac\flac.exe
Additional command line options : -V -8 %source%
TOC of the extracted CD
Track | Start | Length | Start sector | End sector
---------------------------------------------------------
1 | 0:00.00 | 7:22.18 | 0 | 33167
2 | 7:22.18 | 7:07.20 | 33168 | 65212
3 | 14:29.38 | 4:18.45 | 65213 | 84607
4 | 18:48.08 | 7:38.00 | 84608 | 118957
5 | 26:26.08 | 5:07.30 | 118958 | 142012
6 | 31:33.38 | 5:02.55 | 142013 | 164717
7 | 36:36.18 | 4:49.00 | 164718 | 186392
8 | 41:25.18 | 2:02.10 | 186393 | 195552
9 | 43:27.28 | 3:03.35 | 195553 | 209312
10 | 46:30.63 | 7:46.60 | 209313 | 244322
11 | 54:17.48 | 3:45.05 | 244323 | 261202
12 | 58:02.53 | 5:40.22 | 261203 | 286724
Range status and errors
Selected range
Filename J:\New Music\CHAN_10613 - Bassoon Concertos - Karen Geoghegan\Bassoon Concertos.wav
Peak level 93.0 %
Extraction speed 2.7 X
Range quality 99.9 %
Test CRC 82D07FA7
Copy CRC 82D07FA7
Copy OK
No errors occurred
AccurateRip summary
Track 1 accurately ripped (confidence 6) [4E8BFE4D] (AR v2)
Track 2 accurately ripped (confidence 6) [35253CC2] (AR v2)
Track 3 accurately ripped (confidence 6) [DDF4364C] (AR v2)
Track 4 accurately ripped (confidence 6) [65684D9B] (AR v2)
Track 5 accurately ripped (confidence 6) [5A707726] (AR v2)
Track 6 accurately ripped (confidence 6) [13BA0B44] (AR v2)
Track 7 accurately ripped (confidence 6) [59AAAD68] (AR v2)
Track 8 accurately ripped (confidence 6) [C44C0C9D] (AR v2)
Track 9 accurately ripped (confidence 5) [AA385A1D] (AR v2)
Track 10 accurately ripped (confidence 6) [802262F2] (AR v2)
Track 11 accurately ripped (confidence 7) [C2613AB9] (AR v2)
Track 12 accurately ripped (confidence 7) [390496D0] (AR v2)
All tracks accurately ripped
End of status report
==== Log checksum 1960312BA719CBA2C472286EB2D11925202E0DCD2661F29FDE5EF55F8194C5B9 ====
[teatrix.ru].t18052.torrent 
Торрент: Зарегистрирован [ 2016-03-17 00:44 ] · 87151B787810ECE5472D39EE839A4C75E83CA20B

Скачать .torrent

Скачать

37 KB

Статус: проверено
Скачан: 0 раз
Размер: 231 MB
terms.php



Быстрый ответ

Имя:

      
Для отправки сообщений необходимо включить JavaScript
Показать сообщения:    

Текущее время: 04-Дек 13:12

Часовой пояс: UTC + 3


Вы можете начинать темы
Вы можете отвечать на сообщения
Вы не можете редактировать свои сообщения
Вы не можете удалять свои сообщения
Вы не можете голосовать в опросах
Вы не можете прикреплять файлы к сообщениям
Вы можете скачивать файлы