(Sacred, 21st Century) Michael Denhoff - Credo, Aus tiefer Not (I.Kurka, A.Lenzen, Chor d.Katholischen Hochschule f.Kirchenmusik St.Gregorius Aachen, Orchester d.Kolner Kammermusiker, S.Schreyer) - 2004, APE (image+.cue) lossless


Статистика раздачи [Обновить пиров]
Размер:  221 MB   |    Зарегистрирован:  8 месяцев 24 дня   |    Скачан:  0 раз

Полного источника не было: Никогда

 
   
 
 
 

[Цитировать]

Michael Denhoff - Credo
Жанр: Sacred, 21st Century
Страна-производитель диска: Germany
Год издания диска: 2004
Издатель (лейбл): Cybele
Номер по каталогу: SACD 860.301
Дата записи: 2003-2004
Аудиокодек: APE
Тип рипа: image+.cue
Битрейт аудио: lossless
Продолжительность: 01:03:36
Источник: скачано с avaxhome
Наличие сканов в содержимом раздачи: да
Треклист:
In Unum Deum - Credo op. 93 für Sopran, Bariton, Chor, Orgel und kleines Orchester
01 - I. Credo 1 4:32
02 - II. In Unum Deum 2:58
03 - III. Patrem Omnipotentem 0:55
04 - IV. Credo 2 3:01
05 - V. Et In Unum Dominum 2:26
06 - VI. Et Incarnatus Est 1:03
07 - VII. Tenebrae 2:47
08 - VIII. Crucifixus 4:07
09 - IX. Et Resurrexit 2:32
10 - X. Das leere Grab 2:06
11 - XI. Et In Spiritum Sanctum 2:38
12 - XII. Et Exspecto 5:58
13 Aus tiefer Not - Anrufung für Orgel op. 41 12:49
Credo op. 93a für gemischten Chor
14 - I. Credo In Unum Deum 1:27
15 - II. Et In Unum Dominum 1:49
16 - III. Et Incarnatus Est 0:51
17 - IV. Crucifixus 2:19
18 - V. Et Resurrexit 2:30
19 - VI. Et In Spiritum Sanctum 1:31
20 - VII. Et In Unam Sanctam Catholicam 1:41
21 - VIII. Et Exspecto 3:36
Исполнители:
Irene Kurka (soprano)
Alban Lenzen (baritone)
Michael Hoppe, Johannes Trümpler (organ)
Chor der Katholischen Hochschule für Kirchenmusik St. Gregorius Aachen
Orchester der Kölner Kammermusiker
Steffen Schreyer (conductor)

Лог создания рипа

Exact Audio Copy V1.0 beta 3 from 29. August 2011
EAC extraction logfile from 27. May 2013, 15:27
- / Denhoff: Credo
Used drive : PIONEER BD-RW BDR-206 Adapter: 0 ID: 2
Read mode : Secure
Utilize accurate stream : Yes
Defeat audio cache : Yes
Make use of C2 pointers : No
Read offset correction : 667
Overread into Lead-In and Lead-Out : No
Fill up missing offset samples with silence : Yes
Delete leading and trailing silent blocks : No
Null samples used in CRC calculations : Yes
Used interface : Native Win32 interface for Win NT & 2000
Used output format : User Defined Encoder
Selected bitrate : 1024 kBit/s
Quality : High
Add ID3 tag : Yes
Command line compressor : C:\Program Files\FLAC\flac.exe
Additional command line options : -5 -T "Artist=%artist%" -T "Title=%title%" -T "Album=%albumtitle%" -T "Date=%year%" -T "Tracknumber=%tracknr%" -T "Genre=%genre%" %source% -o %dest%
TOC of the extracted CD
Track | Start | Length | Start sector | End sector
---------------------------------------------------------
1 | 0:00.00 | 4:31.44 | 0 | 20368
2 | 4:31.44 | 2:58.32 | 20369 | 33750
3 | 7:30.01 | 0:54.45 | 33751 | 37845
4 | 8:24.46 | 3:00.69 | 37846 | 51414
5 | 11:25.40 | 2:25.74 | 51415 | 62363
6 | 13:51.39 | 1:03.08 | 62364 | 67096
7 | 14:54.47 | 2:47.13 | 67097 | 79634
8 | 17:41.60 | 4:07.31 | 79635 | 98190
9 | 21:49.16 | 2:31.69 | 98191 | 109584
10 | 24:21.10 | 2:06.30 | 109585 | 119064
11 | 26:27.40 | 2:37.43 | 119065 | 130882
12 | 29:05.08 | 5:58.03 | 130883 | 157735
13 | 35:03.11 | 12:48.58 | 157736 | 215393
14 | 47:51.69 | 1:27.32 | 215394 | 221950
15 | 49:19.26 | 1:48.52 | 221951 | 230102
16 | 51:08.03 | 0:50.57 | 230103 | 233909
17 | 51:58.60 | 2:19.01 | 233910 | 244335
18 | 54:17.61 | 2:29.41 | 244336 | 255551
19 | 56:47.27 | 1:31.36 | 255552 | 262412
20 | 58:18.63 | 1:41.28 | 262413 | 270015
21 | 60:00.16 | 3:35.39 | 270016 | 286179
Range status and errors
Selected range
Filename F:\=== VINYL RIPS ===\=== EAC===\X FRESH RIP\Denhoff- Credo.wav
Peak level 96.7 %
Extraction speed 1.3 X
Range quality 100.0 %
Test CRC 5B488507
Copy CRC 5B488507
Copy OK
No errors occurred
AccurateRip summary
Track 1 not present in database
Track 2 not present in database
Track 3 not present in database
Track 4 not present in database
Track 5 not present in database
Track 6 not present in database
Track 7 not present in database
Track 8 not present in database
Track 9 not present in database
Track 10 not present in database
Track 11 not present in database
Track 12 not present in database
Track 13 not present in database
Track 14 not present in database
Track 15 not present in database
Track 16 not present in database
Track 17 not present in database
Track 18 not present in database
Track 19 not present in database
Track 20 not present in database
Track 21 not present in database
None of the tracks are present in the AccurateRip database
End of status report
---- CUETools DB Plugin V2.1.3
[CTDB TOCID: CTZjRuhrnFqBVcBUWPgTM1V2KC0-] disk not present in database, Submit result: database access error: Der Remotename konnte nicht aufgelöst werden: 'db.cuetools.net'
==== Log checksum C846B0DBF9E88EE51B4A54EF3B1790E14100556924593565A4160AB576D0DD76 ====

Скриншот спектра частот

[teatrix.ru].t18054.torrent 
Торрент: Зарегистрирован [ 2016-03-17 00:44 ] · F5A4E6321773F476EA3F28D30E46F3AD11936656

Скачать .torrent

Скачать

18 KB

Статус: проверено
Скачан: 0 раз
Размер: 221 MB
terms.php



Быстрый ответ

Имя:

      
Для отправки сообщений необходимо включить JavaScript
Показать сообщения:    

Текущее время: 10-Дек 21:37

Часовой пояс: UTC + 3


Вы можете начинать темы
Вы можете отвечать на сообщения
Вы не можете редактировать свои сообщения
Вы не можете удалять свои сообщения
Вы не можете голосовать в опросах
Вы не можете прикреплять файлы к сообщениям
Вы можете скачивать файлы