(Classical, sacred) Dom zu St.Blasien - Organ Music and Gregorian Chant: Grigny, Tournemire, Alain, Langlais - Schola Gregoriana, Bernhard Schmid, Bernhard Marx - 2009, FLAC (image+.cue) lossless


Статистика раздачи [Обновить пиров]
Размер:  296 MB   |    Зарегистрирован:  8 месяцев 24 дня   |    Скачан:  0 раз

Полного источника не было: Никогда

 
   
 
 
 

[Цитировать]

Dom zu St.Blasien - Organ Music and Gregorian Chant: Grigny, Tournemire, Alain, Langlais - Schola Gregoriana, Bernhard Schmid, Bernhard Marx
Жанр: Classical, sacred
Страна-производитель диска: Germany
Год издания диска: 2009
Издатель (лейбл): Ars Musici
Дата записи: 1999
Аудиокодек: FLAC
Тип рипа: image+.cue
Битрейт аудио: lossless
Продолжительность: 75:53
Источник: собственный рип
Наличие сканов в содержимом раздачи: да
Треклист:
Nicolas de Grigny (1672-1703)
Hymnus "Ave maris stella" (Livre d'orgue)
[1] Plain chant en taille a 5
[2] Choral: 'Ave maris stella' Verse 1-2
[3] Fugue a 4
[4] Choral: 'Ave maris stella' Verse 3-4
[5] Duo
[6] Choral: 'Ave maris stella' Verse 5-7
[7] Dialogue sur les Grands Jeux
[8] Choral: 'Te Deum laudamus'
Charles Tournemire (1870-1939)
[9] Improvisation sur le 'Te Deum'
[10] Cantilène improvisée
[11] Choral: 'Victimae paschali laudes'
[12] Choral-Improvisation sur le 'Victimae paschali laudes'
[13] Choral: Te lucis ante terminum
Jehan Alain (1911-1940)
[14] Postlude pour l'office de complies
Jean Langlais (1907-1991)
[15]-[25] Suite médiévale en forme de Messe basse
Исполнители:
Bernhard Marx organ
Schola Gregoriana der Hochschule für Kirchenmusik Rottenburg
Bernhard Schmid

Лог создания рипа

Exact Audio Copy V1.0 beta 3 from 29. August 2011
EAC extraction logfile from 6. November 2013, 15:32
Schola Gregoriana, Bernhard Schmid, Bernhard Marx / Dom zu St.Blasien - Organ Music and Gregorian Chant
Used drive : HL-DT-STDVDRRW GWA-4164B Adapter: 5 ID: 0
Read mode : Secure
Utilize accurate stream : Yes
Defeat audio cache : Yes
Make use of C2 pointers : No
Read offset correction : 102
Overread into Lead-In and Lead-Out : No
Fill up missing offset samples with silence : Yes
Delete leading and trailing silent blocks : No
Null samples used in CRC calculations : Yes
Used interface : Native Win32 interface for Win NT & 2000
Used output format : User Defined Encoder
Selected bitrate : 896 kBit/s
Quality : High
Add ID3 tag : No
Command line compressor : C:\Program Files\Exact Audio Copy\FLAC\FLAC.EXE
Additional command line options : -V -8 %source%
TOC of the extracted CD
Track | Start | Length | Start sector | End sector
---------------------------------------------------------
1 | 0:00.00 | 1:14.27 | 0 | 5576
2 | 1:14.27 | 0:49.04 | 5577 | 9255
3 | 2:03.31 | 2:38.05 | 9256 | 21110
4 | 4:41.36 | 0:53.49 | 21111 | 25134
5 | 5:35.10 | 1:49.16 | 25135 | 33325
6 | 7:24.26 | 1:27.10 | 33326 | 39860
7 | 8:51.36 | 3:53.38 | 39861 | 57373
8 | 12:44.74 | 6:18.14 | 57374 | 85737
9 | 19:03.13 | 6:10.61 | 85738 | 113548
10 | 25:13.74 | 5:27.08 | 113549 | 138081
11 | 30:41.07 | 1:37.12 | 138082 | 145368
12 | 32:18.19 | 7:46.14 | 145369 | 180332
13 | 40:04.33 | 1:29.66 | 180333 | 187073
14 | 41:34.24 | 5:04.14 | 187074 | 209887
15 | 46:38.38 | 0:37.15 | 209888 | 212677
16 | 47:15.53 | 2:27.56 | 212678 | 223758
17 | 49:43.34 | 2:12.69 | 223759 | 233727
18 | 51:56.28 | 2:49.47 | 233728 | 246449
19 | 54:46.00 | 1:02.20 | 246450 | 251119
20 | 55:48.20 | 1:44.72 | 251120 | 258991
21 | 57:33.17 | 3:38.23 | 258992 | 275364
22 | 61:11.40 | 0:48.73 | 275365 | 279037
23 | 62:00.38 | 4:05.13 | 279038 | 297425
24 | 66:05.51 | 4:15.71 | 297426 | 316621
25 | 70:21.47 | 5:28.11 | 316622 | 341232
Range status and errors
Selected range
Filename D:\temp\Music\Dom zu St.Blasien - Organ Music and Gregorian Chant\Dom zu St.Blasien - Organ Music and Gregorian Chant.wav
Peak level 90.6 %
Extraction speed 3.2 X
Range quality 100.0 %
Test CRC CB91AA10
Copy CRC CB91AA10
Copy OK
No errors occurred
AccurateRip summary
Track 1 not present in database
Track 2 not present in database
Track 3 not present in database
Track 4 not present in database
Track 5 not present in database
Track 6 not present in database
Track 7 not present in database
Track 8 not present in database
Track 9 not present in database
Track 10 not present in database
Track 11 not present in database
Track 12 not present in database
Track 13 not present in database
Track 14 not present in database
Track 15 not present in database
Track 16 not present in database
Track 17 not present in database
Track 18 not present in database
Track 19 not present in database
Track 20 not present in database
Track 21 not present in database
Track 22 not present in database
Track 23 not present in database
Track 24 not present in database
Track 25 not present in database
None of the tracks are present in the AccurateRip database
End of status report
==== Log checksum A5911500654C73EDF20B92A3AA97A59033146048DC8D95A0FB658B9DF5D92943 ====
[teatrix.ru].t18056.torrent 
Торрент: Зарегистрирован [ 2016-03-17 00:38 ] · E44E0EB992450CBD72171C80B2FEEE585512A28F

Скачать .torrent

Скачать

25 KB

Статус: проверено
Скачан: 0 раз
Размер: 296 MB
terms.php



Быстрый ответ

Имя:

      
Для отправки сообщений необходимо включить JavaScript
Показать сообщения:    

Текущее время: 10-Дек 11:51

Часовой пояс: UTC + 3


Вы можете начинать темы
Вы можете отвечать на сообщения
Вы не можете редактировать свои сообщения
Вы не можете удалять свои сообщения
Вы не можете голосовать в опросах
Вы не можете прикреплять файлы к сообщениям
Вы можете скачивать файлы