(Classical, Baroque) Bach - Brandeburg Concertos 1 & 2 & 6, The Well-Tempered Clavier, Trio Sonata nr 4 for Organ (Rudolf Pribil, Christiane Jaccottet, Miklos Spanyi)- 1995, FLAC (tracks+.cue) lossless


Статистика раздачи [Обновить пиров]
Размер:  300 MB   |    Зарегистрирован:  8 месяцев 17 дней   |    Скачан:  0 раз

Полного источника не было: Никогда

 
   
 
 
 

[Цитировать]

Bach - Brandeburg Concertos 1 & 2 & 6, The Well-Tempered Clavier, Trio Sonata nr 4 for Organ
Жанр: Classical, Baroque
Страна-производитель диска: EEC
Год издания диска: 1995
Издатель (лейбл): Elap Music A/S
Номер по каталогу: 44004CD
Аудиокодек: FLAC
Тип рипа: tracks+.cue
Битрейт аудио: lossless
Продолжительность: 1:05:35.
Источник: собственный рип
Наличие сканов в содержимом раздачи: да
Треклист:
01. Christiane Jaccottet/ The Well-Tempered Clavier - Prelude and Fugue nr 1, C Major, BWV846 [0:03:49.05]
Miklos Spanyi / Trio Sonata nr 4 for Organ, E Minor, BWV528:
02. Adagio Vivace [0:02:48.47]
03. Andante [0:04:50.03]
04. Un poco allegro [0:02:49.55]
Philarmonia Slavonica/ Brandeburg Concerto nr 1, F Major, BWV1046:
05. Allegro [0:04:01.52]
06. Adagio [0:04:06.00]
07. Allegro [0:04:25.35]
08. Minuetto Trio Minuetto Polonase & Minuetto Trio Minuetto [0:07:27.68]
Philarmonia Slavonica/ Brandeburg Concerto nr 2, F Major, BWV1047:
09. Allegro [0:05:38.02]
10. Andante [0:04:29.33]
11. Allegro assai [0:03:27.10]
Philarmonia Slavonica/ Brandeburg Concerto nr 6, B flat Major, BWV1051
12. Allegro [0:07:10.05]
13. Adagio ma non troppo [0:04:32.22]
14. Allegro [0:05:59.73]
Исполнители:
Philarmonia Slavonica, cond. Rudolf Pribil
Christiane Jaccottet, Harpsichord
Miklos Spanyi, Organ

Лог создания рипа

Exact Audio Copy V1.0 beta 3 from 29. August 2011
Отчёт EAC об извлечении, выполненном 11. января 2014, 16:23
Bach / Brandenburg Concertos
Дисковод: ASUS DRW-1814BLT Adapter: 4 ID: 0
Режим чтения : Достоверность
Использование точного потока : Да
Отключение кэша аудио : Да
Использование указателей C2 : Нет
Коррекция смещения при чтении : 6
Способность читать области Lead-in и Lead-out : Нет
Заполнение пропущенных сэмплов тишиной : Да
Удаление блоков с тишиной в начале и конце : Нет
При вычислениях CRC использовались нулевые сэмплы : Да
Интерфейс : Встроенный Win32-интерфейс для Win NT/2000
Обработка зазоров : Добавлено к предыдущему треку
Выходной формат : Пользовательский кодировщик
Выбранный битрейт : 128 kBit/s
Качество : Высокий
Добавление ID3-тега : Нет
Утилита сжатия : C:\Program Files\Exact Audio Copy\Flac\flac.exe
Дополнительные параметры : -V -8 -T "Genre=%genre%" -T "Artist=%artist%" -T "Title=%title%" -T "Album=%albumtitle%" -T "Date=%year%" -T "Tracknumber=%tracknr%" -T "Comment=EAC1.0b2 FLAC -8" %source%
TOC извлечённого CD
Трек | Старт | Длительность | Начальный сектор | Конечный сектор
---------------------------------------------------------------------
1 | 0:00.00 | 3:49.05 | 0 | 17179
2 | 3:49.05 | 2:48.47 | 17180 | 29826
3 | 6:37.52 | 4:50.03 | 29827 | 51579
4 | 11:27.55 | 2:49.55 | 51580 | 64309
5 | 14:17.35 | 4:01.52 | 64310 | 82436
6 | 18:19.12 | 4:06.00 | 82437 | 100886
7 | 22:25.12 | 4:25.35 | 100887 | 120796
8 | 26:50.47 | 7:27.68 | 120797 | 154389
9 | 34:18.40 | 5:38.02 | 154390 | 179741
10 | 39:56.42 | 4:29.33 | 179742 | 199949
11 | 44:26.00 | 3:27.10 | 199950 | 215484
12 | 47:53.10 | 7:10.05 | 215485 | 247739
13 | 55:03.15 | 4:32.22 | 247740 | 268161
14 | 59:35.37 | 5:59.73 | 268162 | 295159
Трек 1
Имя файла R:\Раздача 8\Bach - 1995 - Brandenburg Concertos (Philarmonia Slavonica, cond. Rudolf Pribil)\01 The Well-Tempered Clavier - Prelude and Fugue nr 1, C Major, BWV846.wav
Длина предзазора 0:00:02.00
Пиковый уровень 94.1 %
Скорость извлечения 4.4 X
Качество трека 99.9 %
CRC теста EC1D28F0
CRC копии EC1D28F0
Копирование... OK
Трек 2
Имя файла R:\Раздача 8\Bach - 1995 - Brandenburg Concertos (Philarmonia Slavonica, cond. Rudolf Pribil)\02 Trio Sonata nr 4 for Organ, E Minor, BWV528 - Adagio Vivace.wav
Длина предзазора 0:00:05.45
Пиковый уровень 32.9 %
Скорость извлечения 4.4 X
Качество трека 99.9 %
CRC теста 9D65124E
CRC копии 9D65124E
Копирование... OK
Трек 3
Имя файла R:\Раздача 8\Bach - 1995 - Brandenburg Concertos (Philarmonia Slavonica, cond. Rudolf Pribil)\03 Trio Sonata nr 4 for Organ, E Minor, BWV528 - Andante.wav
Пиковый уровень 24.9 %
Скорость извлечения 6.1 X
Качество трека 100.0 %
CRC теста 6F655A59
CRC копии 6F655A59
Копирование... OK
Трек 4
Имя файла R:\Раздача 8\Bach - 1995 - Brandenburg Concertos (Philarmonia Slavonica, cond. Rudolf Pribil)\04 Trio Sonata nr 4 for Organ, E Minor, BWV528 - Un poco allegro.wav
Пиковый уровень 37.1 %
Скорость извлечения 6.0 X
Качество трека 100.0 %
CRC теста 086E49F8
CRC копии 086E49F8
Копирование... OK
Трек 5
Имя файла R:\Раздача 8\Bach - 1995 - Brandenburg Concertos (Philarmonia Slavonica, cond. Rudolf Pribil)\05 Brandeburg Concerto nr 1, F Major, BWV1046 - Allegro.wav
Длина предзазора 0:00:05.08
Пиковый уровень 65.2 %
Скорость извлечения 5.9 X
Качество трека 99.9 %
CRC теста 356F068B
CRC копии 356F068B
Копирование... OK
Трек 6
Имя файла R:\Раздача 8\Bach - 1995 - Brandenburg Concertos (Philarmonia Slavonica, cond. Rudolf Pribil)\06 Brandeburg Concerto nr 1, F Major, BWV1046 - Adagio.wav
Длина предзазора 0:00:05.05
Пиковый уровень 68.5 %
Скорость извлечения 6.3 X
Качество трека 99.9 %
CRC теста FB1F4AAF
CRC копии FB1F4AAF
Копирование... OK
Трек 7
Имя файла R:\Раздача 8\Bach - 1995 - Brandenburg Concertos (Philarmonia Slavonica, cond. Rudolf Pribil)\07 Brandeburg Concerto nr 1, F Major, BWV1046 - Allegro.wav
Пиковый уровень 64.5 %
Скорость извлечения 7.6 X
Качество трека 100.0 %
CRC теста 81A2D7CA
CRC копии 81A2D7CA
Копирование... OK
Трек 8
Имя файла R:\Раздача 8\Bach - 1995 - Brandenburg Concertos (Philarmonia Slavonica, cond. Rudolf Pribil)\08 Brandeburg Concerto nr 1, F Major, BWV1046 - Minuetto Trio Minuetto Polonase & Minuetto Trio Minuetto.wav
Длина предзазора 0:00:03.47
Пиковый уровень 63.5 %
Скорость извлечения 8.5 X
Качество трека 100.0 %
CRC теста 217720F7
CRC копии 217720F7
Копирование... OK
Трек 9
Имя файла R:\Раздача 8\Bach - 1995 - Brandenburg Concertos (Philarmonia Slavonica, cond. Rudolf Pribil)\09 Brandeburg Concerto nr 2, F Major, BWV1047 - Allegro.wav
Длина предзазора 0:00:05.03
Пиковый уровень 92.9 %
Скорость извлечения 8.8 X
Качество трека 100.0 %
CRC теста C37855DC
CRC копии C37855DC
Копирование... OK
Трек 10
Имя файла R:\Раздача 8\Bach - 1995 - Brandenburg Concertos (Philarmonia Slavonica, cond. Rudolf Pribil)\10 Brandeburg Concerto nr 2, F Major, BWV1047 - Andante.wav
Длина предзазора 0:00:04.40
Пиковый уровень 22.0 %
Скорость извлечения 8.8 X
Качество трека 100.0 %
CRC теста 0CD54175
CRC копии 0CD54175
Копирование... OK
Трек 11
Имя файла R:\Раздача 8\Bach - 1995 - Brandenburg Concertos (Philarmonia Slavonica, cond. Rudolf Pribil)\11 Brandeburg Concerto nr 2, F Major, BWV1047 - Allegro assai.wav
Длина предзазора 0:00:04.33
Пиковый уровень 63.6 %
Скорость извлечения 7.6 X
Качество трека 99.9 %
CRC теста C0B88E67
CRC копии C0B88E67
Копирование... OK
Трек 12
Имя файла R:\Раздача 8\Bach - 1995 - Brandenburg Concertos (Philarmonia Slavonica, cond. Rudolf Pribil)\12 Brandeburg Concerto nr 6, B flat Major, BWV1051 - Allegro.wav
Длина предзазора 0:00:05.28
Пиковый уровень 91.2 %
Скорость извлечения 10.0 X
Качество трека 100.0 %
CRC теста 24F5525C
CRC копии 24F5525C
Копирование... OK
Трек 13
Имя файла R:\Раздача 8\Bach - 1995 - Brandenburg Concertos (Philarmonia Slavonica, cond. Rudolf Pribil)\13 Brandeburg Concerto nr 6, B flat Major, BWV1051 - Adagio ma non troppo.wav
Длина предзазора 0:00:04.65
Пиковый уровень 69.7 %
Скорость извлечения 9.9 X
Качество трека 100.0 %
CRC теста 51C85AF6
CRC копии 51C85AF6
Копирование... OK
Трек 14
Имя файла R:\Раздача 8\Bach - 1995 - Brandenburg Concertos (Philarmonia Slavonica, cond. Rudolf Pribil)\14 Brandeburg Concerto nr 6, B flat Major, BWV1051 - Allegro.wav
Пиковый уровень 71.0 %
Скорость извлечения 10.4 X
Качество трека 100.0 %
CRC теста 7C0BEF7B
CRC копии 7C0BEF7B
Копирование... OK
Ошибок не произошло
Конец отчёта
==== Контрольная сумма отчёта BCC67F386999C4313D8AF191D6493E2592C836655C88E78EF067666E596503F9 ====

Содержание индексной карты (.CUE)

REM GENRE Classical
REM DATE 1995
REM DISCID D10F5F0E
REM COMMENT "ExactAudioCopy v1.0b3"
CATALOG 9004623158101
PERFORMER "Bach"
TITLE "Brandenburg Concertos"
FILE "01 The Well-Tempered Clavier - Prelude and Fugue nr 1, C Major, BWV846.wav" WAVE
TRACK 01 AUDIO
TITLE "The Well-Tempered Clavier - Prelude and Fugue nr 1, C Major, BWV846"
PERFORMER "Christiane Jaccottet, Harpsichord"
ISRC ;S5A28910100
INDEX 01 00:00:00
TRACK 02 AUDIO
TITLE "Trio Sonata nr 4 for Organ, E Minor, BWV528 - Adagio Vivace"
PERFORMER "Miklos Spanyi, Organ"
ISRC ;S5A28991771
INDEX 00 03:43:35
FILE "02 Trio Sonata nr 4 for Organ, E Minor, BWV528 - Adagio Vivace.wav" WAVE
INDEX 01 00:00:00
FILE "03 Trio Sonata nr 4 for Organ, E Minor, BWV528 - Andante.wav" WAVE
TRACK 03 AUDIO
TITLE "Trio Sonata nr 4 for Organ, E Minor, BWV528 - Andante"
PERFORMER "Miklos Spanyi, Organ"
ISRC ;S5A28991772
INDEX 01 00:00:00
FILE "04 Trio Sonata nr 4 for Organ, E Minor, BWV528 - Un poco allegro.wav" WAVE
TRACK 04 AUDIO
TITLE "Trio Sonata nr 4 for Organ, E Minor, BWV528 - Un poco allegro"
PERFORMER "Miklos Spanyi, Organ"
ISRC ;S5A28991773
INDEX 01 00:00:00
TRACK 05 AUDIO
TITLE "Brandeburg Concerto nr 1, F Major, BWV1046 - Allegro"
PERFORMER "Philarmonia Slavonica, cond. Rudolf Pribil"
ISRC ;S5A28931591
INDEX 00 02:44:47
FILE "05 Brandeburg Concerto nr 1, F Major, BWV1046 - Allegro.wav" WAVE
INDEX 01 00:00:00
TRACK 06 AUDIO
TITLE "Brandeburg Concerto nr 1, F Major, BWV1046 - Adagio"
PERFORMER "Philarmonia Slavonica, cond. Rudolf Pribil"
ISRC ;S5A28931592
INDEX 00 03:56:47
FILE "06 Brandeburg Concerto nr 1, F Major, BWV1046 - Adagio.wav" WAVE
INDEX 01 00:00:00
FILE "07 Brandeburg Concerto nr 1, F Major, BWV1046 - Allegro.wav" WAVE
TRACK 07 AUDIO
TITLE "Brandeburg Concerto nr 1, F Major, BWV1046 - Allegro"
PERFORMER "Philarmonia Slavonica, cond. Rudolf Pribil"
ISRC ;S5A28931593
INDEX 01 00:00:00
TRACK 08 AUDIO
TITLE "Brandeburg Concerto nr 1, F Major, BWV1046 - Minuetto Trio Minuetto Polonase ..."
PERFORMER "Philarmonia Slavonica, cond. Rudolf Pribil"
ISRC ;S5A28931594
INDEX 00 04:21:63
FILE "08 Brandeburg Concerto nr 1, F Major, BWV1046 - Minuetto Trio Minuetto Polonase & Minuetto Trio Minuetto.wav" WAVE
INDEX 01 00:00:00
TRACK 09 AUDIO
TITLE "Brandeburg Concerto nr 2, F Major, BWV1047 - Allegro"
PERFORMER "Philarmonia Slavonica, cond. Rudolf Pribil"
ISRC ;S5A28931601
INDEX 00 07:22:65
FILE "09 Brandeburg Concerto nr 2, F Major, BWV1047 - Allegro.wav" WAVE
INDEX 01 00:00:00
TRACK 10 AUDIO
TITLE "Brandeburg Concerto nr 2, F Major, BWV1047 - Andante"
PERFORMER "Philarmonia Slavonica, cond. Rudolf Pribil"
ISRC ;S5A28931602
INDEX 00 05:33:37
FILE "10 Brandeburg Concerto nr 2, F Major, BWV1047 - Andante.wav" WAVE
INDEX 01 00:00:00
TRACK 11 AUDIO
TITLE "Brandeburg Concerto nr 2, F Major, BWV1047 - Allegro assai"
PERFORMER "Philarmonia Slavonica, cond. Rudolf Pribil"
ISRC ;S5A28931603
INDEX 00 04:25:00
FILE "11 Brandeburg Concerto nr 2, F Major, BWV1047 - Allegro assai.wav" WAVE
INDEX 01 00:00:00
TRACK 12 AUDIO
TITLE "Brandeburg Concerto nr 6, B flat Major, BWV1051 - Allegro"
PERFORMER "Philarmonia Slavonica, cond. Rudolf Pribil"
ISRC ;S5A28931641
INDEX 00 03:21:57
FILE "12 Brandeburg Concerto nr 6, B flat Major, BWV1051 - Allegro.wav" WAVE
INDEX 01 00:00:00
TRACK 13 AUDIO
TITLE "Brandeburg Concerto nr 6, B flat Major, BWV1051 - Adagio ma non troppo"
PERFORMER "Philarmonia Slavonica, cond. Rudolf Pribil"
ISRC ;S5A28931642
INDEX 00 07:05:15
FILE "13 Brandeburg Concerto nr 6, B flat Major, BWV1051 - Adagio ma non troppo.wav" WAVE
INDEX 01 00:00:00
FILE "14 Brandeburg Concerto nr 6, B flat Major, BWV1051 - Allegro.wav" WAVE
TRACK 14 AUDIO
TITLE "Brandeburg Concerto nr 6, B flat Major, BWV1051 - Allegro"
PERFORMER "Philarmonia Slavonica, cond. Rudolf Pribil"
ISRC ;S5A28931643
INDEX 01 00:00:00
[teatrix.ru].t18059.torrent 
Торрент: Зарегистрирован [ 2016-03-17 00:44 ] · 9F64C0593E62C172FC44244C8713039BB517290C

Скачать .torrent

Скачать

14 KB

Статус: проверено
Скачан: 0 раз
Размер: 300 MB
terms.php



Быстрый ответ

Имя:

      
Для отправки сообщений необходимо включить JavaScript
Показать сообщения:    

Текущее время: 03-Дек 09:47

Часовой пояс: UTC + 3


Вы можете начинать темы
Вы можете отвечать на сообщения
Вы не можете редактировать свои сообщения
Вы не можете удалять свои сообщения
Вы не можете голосовать в опросах
Вы не можете прикреплять файлы к сообщениям
Вы можете скачивать файлы