(Classical) Jean Sibelius - Symphony No 2, Violin Concerto - Dylana Jenson, Eugene Ormandy - 1994, FLAC (image+.cue) lossless


Статистика раздачи [Обновить пиров]
Размер:  320 MB   |    Зарегистрирован:  8 месяцев 24 дня   |    Скачан:  0 раз

Полного источника не было: Никогда

 
   
 
 
 

[Цитировать]

Jean Sibelius - Symphony No 2, Violin Concerto - Dylana Jenson, Eugene Ormandy
Жанр: Classical
Страна-производитель диска: USA
Год издания диска: 1994
Издатель (лейбл): BMG
Номер по каталогу: 74321-17904-2
Дата записи: 1972, 1980
Аудиокодек: FLAC
Тип рипа: image+.cue
Битрейт аудио: lossless
Продолжительность: 76.51 mins
Источник: собственный рип
Наличие сканов в содержимом раздачи: да
Треклист:
JEAN SIBELIUS (1865-1957)
SYMPHONY No 2, Opus 43 in D Major • D-dur • re majeur....44:33

1. Allegretto...9:43
2. Tempo andante, ma rubato..14:01
3. Vivaccissimo..6:03
4. Allegro moderato..14:36
VIOLIN CONCERTO, Opus 47* in D Minor • d-moll • re mineur..32:10
5. Allegro moderato..16:18
6. Adagio molto..8:26
7. Allegro..7:16
Исполнители:
Dylana Jenson, violin* • Philadelphia Orchestra • Eugene Ormandy, conductor • Recorded 1972 & 1980*

Лог создания рипа

Exact Audio Copy V1.0 beta 3 from 29. August 2011
Отчёт EAC об извлечении, выполненном 13. января 2014, 21:08
Sibeliius / Symphony #2 & Violin Concerto
Дисковод: TSSTcorpBDDVDW SE-506BB Adapter: 1 ID: 0
Режим чтения : Достоверность
Использование точного потока : Да
Отключение кэша аудио : Да
Использование указателей C2 : Нет
Коррекция смещения при чтении : 6
Способность читать области Lead-in и Lead-out : Нет
Заполнение пропущенных сэмплов тишиной : Да
Удаление блоков с тишиной в начале и конце : Нет
При вычислениях CRC использовались нулевые сэмплы : Да
Интерфейс : Встроенный Win32-интерфейс для Win NT/2000
Выходной формат : Пользовательский кодировщик
Выбранный битрейт : 768 kBit/s
Качество : Высокий
Добавление ID3-тега : Нет
Утилита сжатия : E:\Program Files\audio\EAC\FLAC\FLAC.EXE
Дополнительные параметры : -6 -V -T "ARTIST=%artist%" -T "TITLE=%title%" -T "ALBUM=%albumtitle%" -T "DATE=%year%" -T "TRACKNUMBER=%tracknr%" -T "GENRE=%genre%" -T "COMMENT=%comment%" -T "BAND=%albuminterpret%" -T "ALBUMARTIST=%albuminterpret%" -T "COMPOSER=%composer%" %haslyrics%--tag-from-file=LYRICS="%lyricsfile%"%haslyrics% -T "DISCNUMBER=%cdnumber%" -T "TOTALDISCS=%totalcds%" -T "TOTALTRACKS=%numtracks%" %hascover%--picture="%coverfile%"%hascover% %source% -o %dest%
TOC извлечённого CD
Трек | Старт | Длительность | Начальный сектор | Конечный сектор
---------------------------------------------------------------------
1 | 0:00.00 | 9:49.32 | 0 | 44206
2 | 9:49.32 | 14:05.40 | 44207 | 107621
3 | 23:54.72 | 6:03.05 | 107622 | 134851
4 | 29:58.02 | 14:43.65 | 134852 | 201141
5 | 44:41.67 | 16:21.38 | 201142 | 274754
6 | 61:03.30 | 8:32.17 | 274755 | 313171
7 | 69:35.47 | 7:16.50 | 313172 | 345921
Характеристики диапазона извлечения и сообщения об ошибках
Выбранный диапазон
Имя файла T:\Sibeliius - Symphony #2 & Violin Concerto.wav
Пиковый уровень 82.3 %
Скорость извлечения 2.3 X
Качество диапазона 100.0 %
CRC копии BC7938CA
Копирование... OK
Ошибок не произошло
AccurateRip: сводка
Трек 1 : извлечено точно (доверие 3) [251C4F05] (AR v2)
Трек 2 : извлечено точно (доверие 3) [BE2321DF] (AR v2)
Трек 3 : извлечено точно (доверие 3) [0DC385D2] (AR v2)
Трек 4 : извлечено точно (доверие 3) [1D07C7CC] (AR v2)
Трек 5 : извлечено точно (доверие 3) [67B7DF50] (AR v2)
Трек 6 : извлечено точно (доверие 3) [52E710CD] (AR v2)
Трек 7 : извлечено точно (доверие 3) [302F6663] (AR v2)
Все треки извлечены точно
Конец отчёта

CUE

REM GENRE Classical
REM DISCID 62120407
REM COMMENT "ExactAudioCopy v1.0b3"
PERFORMER "Sibelius"
TITLE "Symphony #2 & Violin Concerto"
FILE "Sibelius - Symphony #2 & Violin Concerto.flac" WAVE
TRACK 01 AUDIO
TITLE "Symphony #2 (Op 43) - 1 - Allegretto"
PERFORMER "Sibelius"
INDEX 01 00:00:00
TRACK 02 AUDIO
TITLE "Symphony #2 (Op 43) - 2 - Tempo Andante, Ma Rubato"
PERFORMER "Sibelius"
INDEX 00 09:43:65
INDEX 01 09:49:32
TRACK 03 AUDIO
TITLE "Symphony #2 (Op 43) - 3 - Vivacissimo"
PERFORMER "Sibelius"
INDEX 00 23:50:45
INDEX 01 23:54:72
TRACK 04 AUDIO
TITLE "Symphony #2 (Op 43) - 4 - Allegro Moderato"
PERFORMER "Sibelius"
INDEX 01 29:58:02
TRACK 05 AUDIO
TITLE "Violin Concerto (Op 47) - 1 - Allegro Moderato"
PERFORMER "Sibelius"
INDEX 00 44:34:55
INDEX 01 44:41:67
TRACK 06 AUDIO
TITLE "Violin Concerto (Op 47) - 2 - Adagio Molto"
PERFORMER "Sibelius"
INDEX 00 60:59:50
INDEX 01 61:03:30
TRACK 07 AUDIO
TITLE "Violin Concerto (Op 47) - 3 - Allegro"
PERFORMER "Sibelius"
INDEX 00 69:29:60
INDEX 01 69:35:47
Доп. информация: Вторая симфония - видимо, та же запись, что и на пластинке http://teatrix.ru/viewtopic.php?t=4555223
Концерт для скрипки - выдающееся исполнение!
PS:Прошу извинить, была ошибка в последнем треке, я перерипал, пересоздал. Скачайте, пожалуйста, заново.
[teatrix.ru].t18062.torrent 
Торрент: Зарегистрирован [ 2016-03-17 00:44 ] · 1B9B3366286985CF442ADD8F1643FAE37944B152

Скачать .torrent

Скачать

14 KB

Статус: проверено
Скачан: 0 раз
Размер: 320 MB
terms.php



Быстрый ответ

Имя:

      
Для отправки сообщений необходимо включить JavaScript
Показать сообщения:    

Текущее время: 10-Дек 04:11

Часовой пояс: UTC + 3


Вы можете начинать темы
Вы можете отвечать на сообщения
Вы не можете редактировать свои сообщения
Вы не можете удалять свои сообщения
Вы не можете голосовать в опросах
Вы не можете прикреплять файлы к сообщениям
Вы можете скачивать файлы