(Classical, oratorio) Giacomo Carissimi - Jephte; Jonas; Dai piu riposti abissi - Consortium Carissimi - 2005, FLAC (image+.cue) lossless


Статистика раздачи [Обновить пиров]
Размер:  222 MB   |    Зарегистрирован:  8 месяцев 21 день   |    Скачан:  1 раз

Полного источника не было: 6 месяцев 15 дней

 
   
 
 
 

[Цитировать]

Giacomo Carissimi - Jephte; Jonas; Dai più riposti abissi - Consortium Carissimi
Жанр: Classical, oratorio
Год издания диска: 2005
Издатель (лейбл): Naxos
Номер по каталогу: 8.557390
Дата записи: 2003
Аудиокодек: FLAC
Тип рипа: image+.cue
Битрейт аудио: lossless
Продолжительность: 53:16
Источник: собственный рип
Наличие сканов в содержимом раздачи: да
Треклист:
Giacomo Carissimi (1605-1674)
Oratorios
[1]-[18] The Story of Jephthah
(Historia di Jephte)
[19] Dai più riposti abissi
(From the most hidden abysses) (Serenade)
[20]-[40] The Story of Jonas
(Historia di Ionas)
Исполнители:
Consortium Carissimi

Лог создания рипа

Exact Audio Copy V1.0 beta 3 from 29. August 2011
EAC extraction logfile from 5. January 2014, 16:56
Consortium Carissimi / Carissimi - Jephte; Ionas
Used drive : HL-DT-STDVDRAM GSA-4083N Adapter: 1 ID: 0
Read mode : Secure
Utilize accurate stream : Yes
Defeat audio cache : Yes
Make use of C2 pointers : No
Read offset correction : 667
Overread into Lead-In and Lead-Out : No
Fill up missing offset samples with silence : Yes
Delete leading and trailing silent blocks : No
Null samples used in CRC calculations : Yes
Used interface : Native Win32 interface for Win NT & 2000
Used output format : User Defined Encoder
Selected bitrate : 896 kBit/s
Quality : High
Add ID3 tag : No
Command line compressor : C:\Program Files\Exact Audio Copy\Flac\flac.exe
Additional command line options : -V -8 %source%
TOC of the extracted CD
Track | Start | Length | Start sector | End sector
---------------------------------------------------------
1 | 0:00.00 | 0:35.03 | 0 | 2627
2 | 0:35.03 | 0:26.64 | 2628 | 4641
3 | 1:01.67 | 0:27.23 | 4642 | 6689
4 | 1:29.15 | 0:19.67 | 6690 | 8181
5 | 1:49.07 | 0:41.72 | 8182 | 11328
6 | 2:31.04 | 0:33.27 | 11329 | 13830
7 | 3:04.31 | 0:13.03 | 13831 | 14808
8 | 3:17.34 | 0:41.04 | 14809 | 17887
9 | 3:58.38 | 0:28.04 | 17888 | 19991
10 | 4:26.42 | 1:08.67 | 19992 | 25158
11 | 5:35.34 | 0:44.35 | 25159 | 28493
12 | 6:19.69 | 0:37.01 | 28494 | 31269
13 | 6:56.70 | 1:10.42 | 31270 | 36561
14 | 8:07.37 | 0:30.53 | 36562 | 38864
15 | 8:38.15 | 3:56.11 | 38865 | 56575
16 | 12:34.26 | 0:39.65 | 56576 | 59565
17 | 13:14.16 | 4:42.61 | 59566 | 80776
18 | 17:57.02 | 3:42.62 | 80777 | 97488
19 | 21:39.64 | 12:09.05 | 97489 | 152168
20 | 33:48.69 | 0:22.03 | 152169 | 153821
21 | 34:10.72 | 0:38.60 | 153822 | 156731
22 | 34:49.57 | 0:31.38 | 156732 | 159094
23 | 35:21.20 | 0:30.36 | 159095 | 161380
24 | 35:51.56 | 0:18.29 | 161381 | 162759
25 | 36:10.10 | 2:57.07 | 162760 | 176041
26 | 39:07.17 | 1:19.28 | 176042 | 181994
27 | 40:26.45 | 0:43.39 | 181995 | 185258
28 | 41:10.09 | 0:25.10 | 185259 | 187143
29 | 41:35.19 | 0:28.40 | 187144 | 189283
30 | 42:03.59 | 0:21.12 | 189284 | 190870
31 | 42:24.71 | 0:18.59 | 190871 | 192279
32 | 42:43.55 | 0:24.34 | 192280 | 194113
33 | 43:08.14 | 0:20.22 | 194114 | 195635
34 | 43:28.36 | 0:39.18 | 195636 | 198578
35 | 44:07.54 | 0:33.46 | 198579 | 201099
36 | 44:41.25 | 0:21.30 | 201100 | 202704
37 | 45:02.55 | 4:59.21 | 202705 | 225150
38 | 50:02.01 | 0:21.45 | 225151 | 226770
39 | 50:23.46 | 0:25.07 | 226771 | 228652
40 | 50:48.53 | 2:25.22 | 228653 | 239549
Range status and errors
Selected range
Filename J:\New Music\Carissimi - Jephte; Ionas\Carissimi - Jephte; Ionas.wav
Peak level 94.9 %
Extraction speed 2.6 X
Range quality 100.0 %
Test CRC DEA56871
Copy CRC DEA56871
Copy OK
No errors occurred
AccurateRip summary
Track 1 accurately ripped (confidence 1) [1072652D] (AR v2)
Track 2 accurately ripped (confidence 1) [5AB6806A] (AR v2)
Track 3 accurately ripped (confidence 1) [135CA58D] (AR v2)
Track 4 accurately ripped (confidence 1) [5F78957D] (AR v2)
Track 5 accurately ripped (confidence 1) [69C565E8] (AR v2)
Track 6 accurately ripped (confidence 1) [378824F0] (AR v2)
Track 7 accurately ripped (confidence 1) [0776EA60] (AR v2)
Track 8 accurately ripped (confidence 1) [8224DEFC] (AR v2)
Track 9 accurately ripped (confidence 1) [454C2823] (AR v2)
Track 10 accurately ripped (confidence 1) [B556CD7E] (AR v2)
Track 11 accurately ripped (confidence 1) [7216FC8E] (AR v2)
Track 12 accurately ripped (confidence 1) [AB3357E9] (AR v2)
Track 13 accurately ripped (confidence 1) [24750962] (AR v2)
Track 14 accurately ripped (confidence 1) [A61B0D4C] (AR v2)
Track 15 accurately ripped (confidence 1) [E63D9E7D] (AR v2)
Track 16 accurately ripped (confidence 1) [DBD96531] (AR v2)
Track 17 accurately ripped (confidence 1) [71E096CA] (AR v2)
Track 18 accurately ripped (confidence 1) [64F82E93] (AR v2)
Track 19 accurately ripped (confidence 1) [6DFC239A] (AR v2)
Track 20 accurately ripped (confidence 1) [2DA4A225] (AR v2)
Track 21 accurately ripped (confidence 1) [86C5FA16] (AR v2)
Track 22 accurately ripped (confidence 1) [78804C5F] (AR v2)
Track 23 accurately ripped (confidence 1) [0992543C] (AR v2)
Track 24 accurately ripped (confidence 1) [6538CFEC] (AR v2)
Track 25 accurately ripped (confidence 1) [56C9AFE7] (AR v2)
Track 26 accurately ripped (confidence 1) [AF9296F6] (AR v2)
Track 27 accurately ripped (confidence 1) [3E4D9AB2] (AR v2)
Track 28 accurately ripped (confidence 1) [1024990F] (AR v2)
Track 29 accurately ripped (confidence 1) [B406CA57] (AR v2)
Track 30 accurately ripped (confidence 1) [F1D85A3C] (AR v2)
Track 31 accurately ripped (confidence 1) [1488AA7E] (AR v2)
Track 32 accurately ripped (confidence 1) [7265BBAF] (AR v2)
Track 33 accurately ripped (confidence 1) [84EDA9BA] (AR v2)
Track 34 accurately ripped (confidence 1) [A31FA22E] (AR v2)
Track 35 accurately ripped (confidence 1) [320B7ADF] (AR v2)
Track 36 accurately ripped (confidence 1) [23EC2CB9] (AR v2)
Track 37 accurately ripped (confidence 1) [C4082E0D] (AR v2)
Track 38 accurately ripped (confidence 1) [CE7B2274] (AR v2)
Track 39 accurately ripped (confidence 1) [6BF28BDB] (AR v2)
Track 40 accurately ripped (confidence 1) [1B2DDC1B] (AR v2)
All tracks accurately ripped
End of status report
==== Log checksum 2238923278DB36DBCC42B3EF4B18C3D28877780F719C3FBD36887ECBE3F92C3F ====
[teatrix.ru].t18063.torrent 
Торрент: Зарегистрирован [ 2016-03-17 00:44 ] · 155E1E3109FBAC77582AF3C90F98FD9BCBD53129

Скачать .torrent

Скачать

36 KB

Статус: проверено
Скачан: 1 раз
Размер: 222 MB
terms.php



Быстрый ответ

Имя:

      
Для отправки сообщений необходимо включить JavaScript
Показать сообщения:    

Текущее время: 07-Дек 21:21

Часовой пояс: UTC + 3


Вы можете начинать темы
Вы можете отвечать на сообщения
Вы не можете редактировать свои сообщения
Вы не можете удалять свои сообщения
Вы не можете голосовать в опросах
Вы не можете прикреплять файлы к сообщениям
Вы можете скачивать файлы