(Classical) Yehudi Menuhin - A Portrait (Mendelssohn,Bach,Bruch,Saint-Saens,Beethoven,Paganini,Чайковский,Mozart,Brahms) - 2013, FLAC (image+.cue) lossless


Статистика раздачи [Обновить пиров]
Размер:  341 MB   |    Зарегистрирован:  8 месяцев 17 дней   |    Скачан:  0 раз

Полного источника не было: Никогда

 
   
 
 
 

[Цитировать]

Yehudi Menuhin- A Portrait
(Mendelssohn,Bach,Bruch,Saint-Saens,Beethoven,Paganini,Tschaikowsky,Mozart,Brahms)
Жанр: Classical
Страна-производитель диска: E.U.
Год издания диска: 2013
Издатель (лейбл): EMI Classics
Номер по каталогу: 2 32633 2
Дата записи: указано потреково
Аудиокодек: FLAC
Тип рипа: image+.cue
Битрейт аудио: lossless
Продолжительность: 01:16:41
Источник: JVA
Наличие сканов в содержимом раздачи: да
Треклист:
Felix Mendelssohn Bartholdy (1809-1847)
01. Violin Concerto in E minor op. 64
I. Allegro molto appassionato (12:34)
Berliner Philharmoniker • Wilhelm Furtwangler
Digital remastering 1999 EMI Records Ltd • MONO
Johann Sebastian Bach (1685-1750)
02. Violin Concerto in A minor BWV 1041
I. Allegro (4:09)
Bath Festival Orchestra • Yehudi Menuhin
Digital remastering 1989 EMI Records Ltd.
Max Bruch (1838-1920)
03. Violin Concerto No. 1 in G minor op. 26
II. Adagio (8:30)
Philharmonia Orchestra • Walter Susskind
Digital remastering 1997 EMI Records Ltd.
Camille Saint-Saens (1835-1921)
04. Introduktion und Rondo capriccioso in A minor op. 28 (9:30)
Philharmonia Orchestra • Sir Eugene Goossens
Digital remastering 2000 EMI Records Ltd.
Ludwig van Beethoven (1770-1827)
05. Romanze Nr. 2 in F op. 50 (9:03)
Philharmonia Orchestra • John Pritchard
1962 & digital remastering 1992 EMI Records Ltd.
Nicolo Paganini (1782-1840)
06. Violin Concerto No. 1 in D op. 6
III. Rondo: Allegro spiritoso (8:35)
Royal Philharmonic Orchestra • Alberto Erede
1961 & digital remastering 1987 EMI Records Ltd.
Peter Iljitsch Tschaikowsky (1840-1893)
07. Swan Lake op. 20
Pas d`action (2. Akt): Andante - Andante non troppo - Allegro (7:21)
Philharmonia Orchestra • Efrem Kurtz
Digital remastering 1990 EMI Records Ltd.
Wolfgang Amadeus Mozart (1756-1791)
08. Violin Concerto No. 3 in G KV 216
II. Adagio (7:58)
Bath Festival Orchestra • Yehudi Menuhin
1962 & digital remastering 1990 EMI Records Ltd.
Johannes Brahms (1833-1897)
09. Violin Concerto in D op. 77 (8:15)
III. Allegro giocoso, ma non troppo vivace - Poco piu presto
Berliner Philharmoniker • Rudolf Kempe
Digital remastering 1989 EMI Records Ltd.
Исполнители:
Yehudi Menuhin - violine

Лог создания рипа

Exact Audio Copy V0.99 prebeta 5 from 4. May 2009
Отчёт EAC об извлечении, выполненном 5. мая 2013, 21:35
Yehudi Menuhin / Legend CD 1
Дисковод: ASUS SBC-06D1S-U Adapter: 2 ID: 0
Режим чтения : Достоверность
Использование точного потока : Да
Отключение кэша аудио : Да
Использование указателей C2 : Нет
Коррекция смещения при чтении : 102
Способность читать области Lead-in и Lead-out : Нет
Заполнение пропущенных сэмплов тишиной : Да
Удаление блоков с тишиной в начале и конце : Нет
При вычислениях CRC использовались нулевые сэмплы : Да
Интерфейс : Встроенный Win32-интерфейс для Win NT/2000
Выходной формат : Пользовательский кодировщик
Выбранный битрейт : 768 kBit/s
Качество : Высокий
Добавление ID3-тэга : Нет
Утилита сжатия : C:\Program Files (x86)\Exact Audio Copy\Flac\flac.exe
Дополнительные параметры : -6 -V -T "ARTIST=%a" -T "TITLE=%t" -T "ALBUM=%g" -T "DATE=%y" -T "TRACKNUMBER=%n" -T "GENRE=%m" -T "COMMENT=%e" %s -o %d
TOC извлечённого CD
Трек | Старт | Длительность | Начальный сектор | Конечный сектор
---------------------------------------------------------------------
1 | 0:00.00 | 12:39.62 | 0 | 56986
2 | 12:39.62 | 4:14.70 | 56987 | 76106
3 | 16:54.57 | 8:35.28 | 76107 | 114759
4 | 25:30.10 | 9:35.07 | 114760 | 157891
5 | 35:05.17 | 9:09.28 | 157892 | 199094
6 | 44:14.45 | 8:40.50 | 199095 | 238144
7 | 52:55.20 | 7:26.67 | 238145 | 271661
8 | 60:22.12 | 8:03.46 | 271662 | 307932
9 | 68:25.58 | 8:15.52 | 307933 | 345109
Характеристики диапазона извлечения и сообщения об ошибках
Выбранный диапазон
Имя файла F:\EAC_AdvantiX\Yehudi Menuhin - A Portrait\Yehudi Menuhin - A Portrait.wav
Пиковый уровень 98.8 %
Качество диапазона 100.0 %
CRC копии D5C76B92
Копирование... OK
Ошибок не произошло
AccurateRip: сводка
Трек 1 нет в базе данных
Трек 2 нет в базе данных
Трек 3 нет в базе данных
Трек 4 нет в базе данных
Трек 5 нет в базе данных
Трек 6 нет в базе данных
Трек 7 нет в базе данных
Трек 8 нет в базе данных
Трек 9 нет в базе данных
Ни одного трека нет в базе AccurateRip
Конец отчёта

Лог проверки качества


Скриншот спектра частот

[teatrix.ru].t18065.torrent 
Торрент: Зарегистрирован [ 2016-03-17 00:44 ] · 025FC8241D9AE80788A0539545822C9BFA0B3DE2

Скачать .torrent

Скачать

14 KB

Статус: проверено
Скачан: 0 раз
Размер: 341 MB
terms.php



Быстрый ответ

Имя:

      
Для отправки сообщений необходимо включить JavaScript
Показать сообщения:    

Текущее время: 03-Дек 20:42

Часовой пояс: UTC + 3


Вы можете начинать темы
Вы можете отвечать на сообщения
Вы не можете редактировать свои сообщения
Вы не можете удалять свои сообщения
Вы не можете голосовать в опросах
Вы не можете прикреплять файлы к сообщениям
Вы можете скачивать файлы