(Sacred Music) Bach J. S. - Mass in B minor BWV 232 - Cantus Colln, Konrad Junghanel - 2011, FLAC (image+.cue) lossless


Статистика раздачи [Обновить пиров]
Размер:  439 MB   |    Зарегистрирован:  8 месяцев 24 дня   |    Скачан:  0 раз

Полного источника не было: Никогда

 
   
 
 
 

[Цитировать]

Johann Sebastian Bach - Mass in B minor BWV 232 - Cantus Cölln, Konrad Junghänel
Жанр: Sacred Music
Страна-производитель диска: EU
Год издания диска: 2011
Издатель (лейбл): Harmonia Mundi
Номер по каталогу: HMG 501813.14
Дата записи: 2003
Аудиокодек: FLAC
Тип рипа: image+.cue
Битрейт аудио: lossless
Продолжительность: 1:40:40
Источник: скачано с web
Важная информация: рип не мой, все благодарности оригинальному аплоудеру / Important Note: not my rip, all credits to the original uploader
Наличие сканов в содержимом раздачи: нет
Треклист:
CD 1
01. Kyrie eleison
02. Christe eleison
03. Kyrie eleison
04. Gloria in excelsis Deo
05. Et in terra pax
06. Laudamus te
07. Gratias agimus tibi
08. Domine Deus
09. Qui tollis peccata mundi
10. Qui sedes ad dexteram Patris
11. Quoniam tu solus sanctus
12. Cum Sancto Spiritu
CD 2
01. Credo in unum Deum
02. Patrem omnipotentem
03. Et in unum Dominum
04. Et incarnatus est
05. Crucifixus
06. Et resurrexit
07. Et in Spiritum Sanctum Dominum
08. Confiteor
09. Et expecto
10. Sanctus
11. Osanna in excelsis
12. Benedictus
13. Osanna in excelsis
14. Angus Dei
15. Dona nobis pacem
Исполнители:
Cantus Cölln, Konrad Junghänel

Лог создания рипа CD 1

Exact Audio Copy V1.0 beta 3 from 29. August 2011
EAC extraction logfile from 22. June 2012, 23:02
K. Junghänel - Cantus Cölln / Bach - Mass in B minor, BWV 232 [CD1.2]
Used drive : TSSTcorpCDDVDW SH-S223C Adapter: 3 ID: 0
Read mode : Secure
Utilize accurate stream : Yes
Defeat audio cache : Yes
Make use of C2 pointers : No
Read offset correction : 697
Overread into Lead-In and Lead-Out : No
Fill up missing offset samples with silence : Yes
Delete leading and trailing silent blocks : No
Null samples used in CRC calculations : Yes
Used interface : Native Win32 interface for Win NT & 2000
Used output format : User Defined Encoder
Selected bitrate : 768 kBit/s
Quality : High
Add ID3 tag : No
Command line compressor : C:\Program Files\FLAC\flac.exe
Additional command line options : -V -8 -T "Date=%year%" -T "Genre=%genre%" %source%
TOC of the extracted CD
Track | Start | Length | Start sector | End sector
---------------------------------------------------------
1 | 0:00.00 | 9:32.55 | 0 | 42954
2 | 9:32.55 | 5:07.68 | 42955 | 66047
3 | 14:40.48 | 2:55.49 | 66048 | 79221
4 | 17:36.22 | 1:34.68 | 79222 | 86339
5 | 19:11.15 | 4:45.11 | 86340 | 107725
6 | 23:56.26 | 4:07.48 | 107726 | 126298
7 | 28:03.74 | 2:01.67 | 126299 | 135440
8 | 30:05.66 | 5:51.50 | 135441 | 161815
9 | 35:57.41 | 2:44.58 | 161816 | 174173
10 | 38:42.24 | 4:42.42 | 174174 | 195365
11 | 43:24.66 | 4:39.30 | 195366 | 216320
12 | 48:04.21 | 3:45.28 | 216321 | 233223
Range status and errors
Selected range
Filename D:\K. Junghänel - Cantus Cölln - Bach - Mass in B minor, BWV 232 [CD1.2].wav
Peak level 100.0 %
Extraction speed 3.3 X
Range quality 100.0 %
Copy CRC 72440798
Copy OK
No errors occurred
AccurateRip summary
Track 1 cannot be verified as accurate (confidence 10) [B55681E9], AccurateRip returned [B4AD7586] (AR v2)
Track 2 cannot be verified as accurate (confidence 10) [EEAC5765], AccurateRip returned [D0A8FE82] (AR v2)
Track 3 cannot be verified as accurate (confidence 10) [073B8A17], AccurateRip returned [35E64278] (AR v2)
Track 4 cannot be verified as accurate (confidence 10) [CEB1CC1E], AccurateRip returned [A9B533AA] (AR v2)
Track 5 cannot be verified as accurate (confidence 10) [6512747F], AccurateRip returned [8A03E874] (AR v2)
Track 6 cannot be verified as accurate (confidence 10) [AAB29DD8], AccurateRip returned [D70B3899] (AR v2)
Track 7 cannot be verified as accurate (confidence 10) [D86EFCB9], AccurateRip returned [6007A895] (AR v2)
Track 8 cannot be verified as accurate (confidence 10) [0E1C44B6], AccurateRip returned [E5BB5291] (AR v2)
Track 9 cannot be verified as accurate (confidence 10) [D992C358], AccurateRip returned [CDB61FC6] (AR v2)
Track 10 cannot be verified as accurate (confidence 10) [828B3247], AccurateRip returned [99C206DB] (AR v2)
Track 11 cannot be verified as accurate (confidence 10) [5551F8B2], AccurateRip returned [F3997FF2] (AR v2)
Track 12 cannot be verified as accurate (confidence 10) [55D5BE6A], AccurateRip returned [15D9E8F4] (AR v2)
No tracks could be verified as accurate
You may have a different pressing from the one(s) in the database
End of status report
==== Log checksum E10B0A7253F5F13979AB16733FD95D9E7AD8074E1D7F2656668525C2B43073A8 ====

Лог создания рипа CD 2

Exact Audio Copy V1.0 beta 3 from 29. August 2011
EAC extraction logfile from 22. June 2012, 23:21
Konrad Junghanel & Cantus Colln / J. S. Bach : Mass in B minor, BWV 232 (CD2) - Symbolum Nicenum, Sanctus, Benedictus, Agnus Dei
Used drive : TSSTcorpCDDVDW SH-S223C Adapter: 3 ID: 0
Read mode : Secure
Utilize accurate stream : Yes
Defeat audio cache : Yes
Make use of C2 pointers : No
Read offset correction : 697
Overread into Lead-In and Lead-Out : No
Fill up missing offset samples with silence : Yes
Delete leading and trailing silent blocks : No
Null samples used in CRC calculations : Yes
Used interface : Native Win32 interface for Win NT & 2000
Used output format : User Defined Encoder
Selected bitrate : 768 kBit/s
Quality : High
Add ID3 tag : No
Command line compressor : C:\Program Files\FLAC\flac.exe
Additional command line options : -V -8 -T "Date=%year%" -T "Genre=%genre%" %source%
TOC of the extracted CD
Track | Start | Length | Start sector | End sector
---------------------------------------------------------
1 | 0:00.00 | 1:45.49 | 0 | 7923
2 | 1:45.49 | 1:55.14 | 7924 | 16562
3 | 3:40.63 | 4:17.09 | 16563 | 35846
4 | 7:57.72 | 3:06.62 | 35847 | 49858
5 | 11:04.59 | 2:59.55 | 49859 | 63338
6 | 14:04.39 | 3:39.06 | 63339 | 79769
7 | 17:43.45 | 4:42.74 | 79770 | 100993
8 | 22:26.44 | 4:16.69 | 100994 | 120262
9 | 26:43.38 | 2:02.37 | 120263 | 129449
10 | 28:46.00 | 4:18.38 | 129450 | 148837
11 | 33:04.38 | 2:28.37 | 148838 | 159974
12 | 35:33.00 | 3:34.11 | 159975 | 176035
13 | 39:07.11 | 2:30.23 | 176036 | 187308
14 | 41:37.34 | 4:56.27 | 187309 | 209535
15 | 46:33.61 | 2:18.12 | 209536 | 219897
Range status and errors
Selected range
Filename D:\Konrad Junghanel & Cantus Colln - J. S. Bach - Mass in B minor, BWV 232 (CD2) - Symbolum Nicenum, Sanctus, Benedictus, Agnus Dei.wav
Peak level 94.0 %
Extraction speed 3.0 X
Range quality 99.9 %
Copy CRC 6DBEA6B0
Copy OK
No errors occurred
AccurateRip summary
Track 1 cannot be verified as accurate (confidence 18) [BAC09D6F], AccurateRip returned [C8A3E72A] (AR v2)
Track 2 cannot be verified as accurate (confidence 18) [5EC7672F], AccurateRip returned [720A6D2C] (AR v2)
Track 3 cannot be verified as accurate (confidence 18) [A2A83A3E], AccurateRip returned [07D0F036] (AR v2)
Track 4 cannot be verified as accurate (confidence 18) [FC77E1F9], AccurateRip returned [3879DB6F] (AR v2)
Track 5 cannot be verified as accurate (confidence 18) [F8416E88], AccurateRip returned [5E0F7E3E] (AR v2)
Track 6 cannot be verified as accurate (confidence 18) [92C8B0F4], AccurateRip returned [C793487B] (AR v2)
Track 7 cannot be verified as accurate (confidence 18) [8112E42E], AccurateRip returned [B32D6C13] (AR v2)
Track 8 cannot be verified as accurate (confidence 18) [3678C096], AccurateRip returned [77926669] (AR v2)
Track 9 cannot be verified as accurate (confidence 18) [612A5D99], AccurateRip returned [D0418A31] (AR v2)
Track 10 cannot be verified as accurate (confidence 18) [BA5E3B92], AccurateRip returned [F6A92B73] (AR v2)
Track 11 cannot be verified as accurate (confidence 18) [C618D113], AccurateRip returned [41C17A84] (AR v2)
Track 12 cannot be verified as accurate (confidence 18) [85016EA2], AccurateRip returned [F479F56C] (AR v2)
Track 13 cannot be verified as accurate (confidence 18) [72E235F6], AccurateRip returned [5E2F35AB] (AR v2)
Track 14 cannot be verified as accurate (confidence 18) [39D8BD49], AccurateRip returned [DE9697FC] (AR v2)
Track 15 cannot be verified as accurate (confidence 18) [01122221], AccurateRip returned [F27C45C5] (AR v2)
No tracks could be verified as accurate
You may have a different pressing from the one(s) in the database
End of status report
==== Log checksum DCAC27778D6E84828D95C41B909B56680D4504DC2C0069E966AA9992413A1F58 ====
[teatrix.ru].t18067.torrent 
Торрент: Зарегистрирован [ 2016-03-17 00:44 ] · 55F24E693626DBCD2C7555B129C856E12A9ACC32

Скачать .torrent

Скачать

19 KB

Статус: проверено
Скачан: 0 раз
Размер: 439 MB
terms.php



Быстрый ответ

Имя:

      
Для отправки сообщений необходимо включить JavaScript
Показать сообщения:    

Текущее время: 10-Дек 17:49

Часовой пояс: UTC + 3


Вы можете начинать темы
Вы можете отвечать на сообщения
Вы не можете редактировать свои сообщения
Вы не можете удалять свои сообщения
Вы не можете голосовать в опросах
Вы не можете прикреплять файлы к сообщениям
Вы можете скачивать файлы