(Classical, 20th Century Period, Modern, Concerto) Britten - Cello Symphony; Cello Suite No. 2 / Шостакович - Cello Concerto No. 1 (Ростропович [Rostropovich], Рождественский) 2004/1997, FLAC (tracks+.cue) lossless [Original Recording Remastered]


Статистика раздачи [Обновить пиров]
Размер:  193 MB   |    Зарегистрирован:  8 месяцев 23 дня   |    Скачан:  0 раз

Полного источника не было: Никогда

 
   
 
 
 

[Цитировать]

Rostropovich - Britten: Cello Symphony; Cello Suite No. 2 / Shostakovich: Cello Concerto No. 1
Жанр: Classical, 20th Century Period, Modern, Concerto,
Страна-производитель диска: EU / England
Год издания диска: March 23,2004
Издатель (лейбл): EMI / bel BIEM
Номер по каталогу: 7243/5 628270 2/8- LC06646
Дата записи: 1997 / 2004
Аудиокодек: FLAC
Тип рипа: tracks+.cue
Битрейт аудио: lossless
SOUND - MONO
Продолжительность: 01:18:38.10
Источник: Мой CD и рип
Наличие сканов в содержимом раздачи: да
Remastered at Abbey Road studios and noise-shaped
via the Prism SNS system for optimum sound quality

Digital Remastering : Andrew Walter
Треклист:
Britten - Symphony for Cello and Orchestra, Op.68 (1997 Digital Remaster)
[1] I. Allegro maestoso - 11:36
[2] II. Presto inquieto – 4:03
[3] III. Adagio – 9:58
[4] IV. Passacaglia - Andante allegro - 7:02
Britten - Cello Suite No. 2, Op.80 (1997 - Remaster)
[5] I. Declamation (Largo) - 3:29
[6] II. Fuga (Andante) - 4:01
[7] III. Scherzo (Allegro molto) - 1:43
[8] IV. (Andante lento) - 4:37
[9] V. Ciaconna (Allegro) - 6:11
Shostakovich - Cello Concerto No. 1 in E Flat, Op.107 (1997 Digital Remaster)
[10] Allegretto - 6:01
[11] Moderato - 10:20
[12] Cadenza - 4:30
[13] Allegro non – 5:02
Исполнители:
Mstislav Rostropovich - Cello, Primary Artist
Moscow Philharmonic Orchestra
Benjamin Britten, Gennady Rozhdestvensky – Conductor
Benjamin Britten, Dmitry Shostakovich - Composer

Лог создания рипа

Exact Audio Copy V1.0 beta 3 from 29. August 2011
EAC extraction logfile from 15. January 2014, 12:59
Mstislav Rostropovich / Britten: Cello Symphony, Cello Suite No2; Shostakovich: Cello Concerto No.1
Used drive : PIONEER DVDRW DVR-K17B Adapter: 0 ID: 0
Read mode : Secure
Utilize accurate stream : Yes
Defeat audio cache : Yes
Make use of C2 pointers : No
Read offset correction : 48
Overread into Lead-In and Lead-Out : No
Fill up missing offset samples with silence : Yes
Delete leading and trailing silent blocks : No
Null samples used in CRC calculations : Yes
Used interface : Native Win32 interface for Win NT & 2000
Gap handling : Appended to previous track
Used output format : User Defined Encoder
Selected bitrate : 512 kBit/s
Quality : High
Add ID3 tag : No
Command line compressor : C:\Program Files\Exact Audio Copy\Flac\flac.exe
Additional command line options : -8 -V -T "ARTIST=%artist%" -T "TITLE=%title%" -T "ALBUM=%albumtitle%" -T "DATE=%year%" -T "TRACKNUMBER=%tracknr%" -T "TOTALTRACKS=%numtracks%" -T "GENRE=%genre%" -T "ALBUMARTIST=%albumartist%" -T "ALBUM ARTIST=%albumartist%" -T "COMMENT=EAC Secure Mode, Test & Copy, AccurateRip, FLAC -8" %source%
TOC of the extracted CD
Track | Start | Length | Start sector | End sector
---------------------------------------------------------
1 | 0:00.00 | 11:36.20 | 0 | 52219
2 | 11:36.20 | 4:02.62 | 52220 | 70431
3 | 15:39.07 | 9:58.13 | 70432 | 115294
4 | 25:37.20 | 7:02.60 | 115295 | 147004
5 | 32:40.05 | 3:29.45 | 147005 | 162724
6 | 36:09.50 | 4:01.47 | 162725 | 180846
7 | 40:11.22 | 1:43.38 | 180847 | 188609
8 | 41:54.60 | 4:37.70 | 188610 | 209454
9 | 46:32.55 | 6:11.17 | 209455 | 237296
10 | 52:43.72 | 6:01.25 | 237297 | 264396
11 | 58:45.22 | 10:20.53 | 264397 | 310949
12 | 69:06.00 | 4:30.00 | 310950 | 331199
13 | 73:36.00 | 5:02.10 | 331200 | 353859
Track 1
Filename D:\Georgi My RIPS\Mstislav Rostropovich\01 - Cello Symphony Op.68- I. Allegro maestoso.wav
Pre-gap length 0:00:02.00
Peak level 80.6 %
Extraction speed 2.3 X
Track quality 100.0 %
Test CRC 380F2694
Copy CRC 380F2694
Accurately ripped (confidence 4) [60B663DF] (AR v2)
Copy OK
Track 2
Filename D:\Georgi My RIPS\Mstislav Rostropovich\02 - Cello Symphony Op.68- II. Presto inquieto.wav
Peak level 50.7 %
Extraction speed 2.4 X
Track quality 100.0 %
Test CRC 95710FD5
Copy CRC 95710FD5
Accurately ripped (confidence 4) [335965E0] (AR v2)
Copy OK
Track 3
Filename D:\Georgi My RIPS\Mstislav Rostropovich\03 - Cello Symphony Op.68- III. Adagio - cadenza -.wav
Peak level 77.9 %
Extraction speed 2.6 X
Track quality 99.9 %
Test CRC D4C95550
Copy CRC D4C95550
Accurately ripped (confidence 4) [49A165E2] (AR v2)
Copy OK
Track 4
Filename D:\Georgi My RIPS\Mstislav Rostropovich\04 - Cello Symphony Op.68- IV. Passacaglia ( Andante allegro ).wav
Peak level 84.0 %
Extraction speed 3.1 X
Track quality 100.0 %
Test CRC AC976EF8
Copy CRC AC976EF8
Accurately ripped (confidence 4) [BD13815A] (AR v2)
Copy OK
Track 5
Filename D:\Georgi My RIPS\Mstislav Rostropovich\05 - Cello Suite No.2 Op.80- I. Declamato ( Largo ).wav
Pre-gap length 0:00:06.03
Peak level 36.6 %
Extraction speed 3.0 X
Track quality 100.0 %
Test CRC 6BE65B28
Copy CRC 6BE65B28
Accurately ripped (confidence 4) [E474721B] (AR v2)
Copy OK
Track 6
Filename D:\Georgi My RIPS\Mstislav Rostropovich\06 - Cello Suite No.2 Op.80- II. Fuga ( Andante ).wav
Peak level 34.4 %
Extraction speed 3.1 X
Track quality 100.0 %
Test CRC 4401E4B5
Copy CRC 4401E4B5
Accurately ripped (confidence 4) [2E84C377] (AR v2)
Copy OK
Track 7
Filename D:\Georgi My RIPS\Mstislav Rostropovich\07 - Cello Suite No.2 Op.80- III. Scherzo ( Allegro molto ).wav
Peak level 59.8 %
Extraction speed 2.7 X
Track quality 100.0 %
Test CRC D82601C1
Copy CRC D82601C1
Accurately ripped (confidence 4) [584E7C90] (AR v2)
Copy OK
Track 8
Filename D:\Georgi My RIPS\Mstislav Rostropovich\08 - Cello Suite No.2 Op.80- IV. ( Andante lento) -.wav
Peak level 63.7 %
Extraction speed 3.3 X
Track quality 100.0 %
Test CRC 19320F53
Copy CRC 19320F53
Accurately ripped (confidence 4) [32088CB3] (AR v2)
Copy OK
Track 9
Filename D:\Georgi My RIPS\Mstislav Rostropovich\09 - Cello Suite No.2 Op.80- V. Ciaccona ( Allegro ).wav
Peak level 51.9 %
Extraction speed 3.6 X
Track quality 100.0 %
Test CRC 252D7BC2
Copy CRC 252D7BC2
Accurately ripped (confidence 4) [91F1A38D] (AR v2)
Copy OK
Track 10
Filename D:\Georgi My RIPS\Mstislav Rostropovich\10 - Cello Concerto No.1 Op.107- I. Allegretto.wav
Pre-gap length 0:00:04.70
Peak level 98.1 %
Extraction speed 3.7 X
Track quality 100.0 %
Test CRC 0147F993
Copy CRC 0147F993
Accurately ripped (confidence 4) [BF696860] (AR v2)
Copy OK
Track 11
Filename D:\Georgi My RIPS\Mstislav Rostropovich\11 - Cello Concerto No.1 Op.107- II. Moderato.wav
Peak level 66.1 %
Extraction speed 4.1 X
Track quality 100.0 %
Test CRC 7BA2A42F
Copy CRC 7BA2A42F
Accurately ripped (confidence 4) [DA9255E6] (AR v2)
Copy OK
Track 12
Filename D:\Georgi My RIPS\Mstislav Rostropovich\12 - Cello Concerto No.1 Op.107- Cadenza -.wav
Peak level 44.1 %
Extraction speed 3.9 X
Track quality 100.0 %
Test CRC 0A4A5753
Copy CRC 0A4A5753
Accurately ripped (confidence 4) [7ACB8133] (AR v2)
Copy OK
Track 13
Filename D:\Georgi My RIPS\Mstislav Rostropovich\13 - Cello Concerto No.1 Op.107- Allegro non troppo.wav
Peak level 99.9 %
Extraction speed 3.7 X
Track quality 99.9 %
Test CRC 6F7BF00C
Copy CRC 6F7BF00C
Accurately ripped (confidence 4) [C8C49C25] (AR v2)
Copy OK
All tracks accurately ripped
No errors occurred
End of status report
---- CUETools DB Plugin V2.1.3
[CTDB TOCID: gpxAV8oY5.kAnv21Yd66X_8ySLw-] found, Submit result: gpxAV8oY5.kAnv21Yd66X_8ySLw- has been confirmed
[f42f0e3e] (3/3) Accurately ripped
==== Log checksum 843E1288F68382803B5957A54B142A17580221A13FDD792BDAA1D6FAC78FC90E ====

Содержание индексной карты (.CUE)

REM GENRE Classical
REM DATE 1997
REM DISCID C6126E0D
REM COMMENT "ExactAudioCopy v1.0b3"
CATALOG 0724356282728
PERFORMER "Mstislav Rostropovich"
TITLE "Britten: Cello Symphony, Cello Suite No2; Shostakovich: Cello Concerto No.1"
FILE "01 - Cello Symphony Op.68- I. Allegro maestoso.wav" WAVE
TRACK 01 AUDIO
TITLE "Cello Symphony Op.68: I. Allegro maestoso"
PERFORMER "Mstislav Rostropovich"
ISRC 000000000000
INDEX 01 00:00:00
FILE "02 - Cello Symphony Op.68- II. Presto inquieto.wav" WAVE
TRACK 02 AUDIO
TITLE "Cello Symphony Op.68: II. Presto inquieto"
PERFORMER "Mstislav Rostropovich"
ISRC 000000000000
INDEX 01 00:00:00
FILE "03 - Cello Symphony Op.68- III. Adagio - cadenza -.wav" WAVE
TRACK 03 AUDIO
TITLE "Cello Symphony Op.68: III. Adagio - cadenza -"
PERFORMER "Mstislav Rostropovich"
ISRC 000000000000
INDEX 01 00:00:00
FILE "04 - Cello Symphony Op.68- IV. Passacaglia ( Andante allegro ).wav" WAVE
TRACK 04 AUDIO
TITLE "Cello Symphony Op.68: IV. Passacaglia ( Andante allegro )"
PERFORMER "Mstislav Rostropovich"
ISRC 000000000000
INDEX 01 00:00:00
TRACK 05 AUDIO
TITLE "Cello Suite No.2 Op.80: I. Declamato ( Largo )"
PERFORMER "Mstislav Rostropovich"
ISRC 000000000000
INDEX 00 06:56:57
FILE "05 - Cello Suite No.2 Op.80- I. Declamato ( Largo ).wav" WAVE
INDEX 01 00:00:00
FILE "06 - Cello Suite No.2 Op.80- II. Fuga ( Andante ).wav" WAVE
TRACK 06 AUDIO
TITLE "Cello Suite No.2 Op.80: II. Fuga ( Andante )"
PERFORMER "Mstislav Rostropovich"
ISRC 000000000000
INDEX 01 00:00:00
FILE "07 - Cello Suite No.2 Op.80- III. Scherzo ( Allegro molto ).wav" WAVE
TRACK 07 AUDIO
TITLE "Cello Suite No.2 Op.80: III. Scherzo ( Allegro molto )"
PERFORMER "Mstislav Rostropovich"
ISRC 000000000000
INDEX 01 00:00:00
FILE "08 - Cello Suite No.2 Op.80- IV. ( Andante lento) -.wav" WAVE
TRACK 08 AUDIO
TITLE "Cello Suite No.2 Op.80: IV. ( Andante lento) -"
PERFORMER "Mstislav Rostropovich"
ISRC 000000000000
INDEX 01 00:00:00
FILE "09 - Cello Suite No.2 Op.80- V. Ciaccona ( Allegro ).wav" WAVE
TRACK 09 AUDIO
TITLE "Cello Suite No.2 Op.80: V. Ciaccona ( Allegro )"
PERFORMER "Mstislav Rostropovich"
ISRC 000000000000
INDEX 01 00:00:00
TRACK 10 AUDIO
TITLE "Cello Concerto No.1 Op.107: I. Allegretto"
PERFORMER "Mstislav Rostropovich"
ISRC 000000000000
INDEX 00 06:06:22
FILE "10 - Cello Concerto No.1 Op.107- I. Allegretto.wav" WAVE
INDEX 01 00:00:00
FILE "11 - Cello Concerto No.1 Op.107- II. Moderato.wav" WAVE
TRACK 11 AUDIO
TITLE "Cello Concerto No.1 Op.107: II. Moderato"
PERFORMER "Mstislav Rostropovich"
ISRC 000000000000
INDEX 01 00:00:00
FILE "12 - Cello Concerto No.1 Op.107- Cadenza -.wav" WAVE
TRACK 12 AUDIO
TITLE "Cello Concerto No.1 Op.107: Cadenza -"
PERFORMER "Mstislav Rostropovich"
ISRC 000000000000
INDEX 01 00:00:00
FILE "13 - Cello Concerto No.1 Op.107- Allegro non troppo.wav" WAVE
TRACK 13 AUDIO
TITLE "Cello Concerto No.1 Op.107: Allegro non troppo"
PERFORMER "Mstislav Rostropovich"
ISRC 000000000000
INDEX 01 00:00:00

Лог проверки качества

-----------------------
DON'T MODIFY THIS FILE
-----------------------
PERFORMER: auCDtect Task Manager, ver. 1.6.0 RC1 build 1.6.0.1
Copyright (c) 2008-2010 y-soft. All rights reserved
http://y-soft.org
ANALYZER: auCDtect: CD records authenticity detector, version 0.8.2
Copyright (c) 2004 Oleg Berngardt. All rights reserved.
Copyright (c) 2004 Alexander Djourik. All rights reserved.
FILE: 13 - Cello Concerto No.1 Op.107- Allegro non troppo.flac
Size: 14266408 Hash: 4FC277376D92406DB88ABA1E70AE67F1 Accuracy: -m0
Conclusion: CDDA 99%
Signature: D453AB8B1CB8692719E53EC95723102E25F88AD7
FILE: 12 - Cello Concerto No.1 Op.107- Cadenza -.flac
Size: 11383126 Hash: 0D7344DB4723802953A2B1D131A17CF6 Accuracy: -m0
Conclusion: CDDA 100%
Signature: FBB6216712E68B9F346CAE33E06352F35A63F5CC
FILE: 11 - Cello Concerto No.1 Op.107- II. Moderato.flac
Size: 25872545 Hash: CA234BF569EA3F0CAD8B1B2B62C6B91F Accuracy: -m0
Conclusion: CDDA 100%
Signature: A0BE4C1E5906A66B689B757F2F26AD00FB601450
FILE: 10 - Cello Concerto No.1 Op.107- I. Allegretto.flac
Size: 16919795 Hash: 45A4CFEC46B920ABFE767A3B29C22436 Accuracy: -m0
Conclusion: CDDA 100%
Signature: EE1E8B3AC496EB32017ECBB80F20E407BB4A87B8
FILE: 09 - Cello Suite No.2 Op.80- V. Ciaccona ( Allegro ).flac
Size: 14982380 Hash: B0C4D340BBA037901EAE489B428BE109 Accuracy: -m0
Conclusion: CDDA 100%
Signature: 504642C6FB74FACFAAD28851C22F4A3D0EC2FC94
FILE: 08 - Cello Suite No.2 Op.80- IV. ( Andante lento) -.flac
Size: 9997707 Hash: A9146F6E17B5439A57A6A4383F85323C Accuracy: -m0
Conclusion: CDDA 100%
Signature: C858FA5A96AE67AE4F69188022E8EDCD5EFE6397
FILE: 07 - Cello Suite No.2 Op.80- III. Scherzo ( Allegro molto ).flac
Size: 4505554 Hash: 925597B974D7B143C0A4EF6F602C67BF Accuracy: -m0
Conclusion: CDDA 100%
Signature: 7C41B3C2CBAD942731DE5607839C81550FC2F1E1
FILE: 06 - Cello Suite No.2 Op.80- II. Fuga ( Andante ).flac
Size: 8856803 Hash: BFF108C84AC3F01B991EA2DA782DF361 Accuracy: -m0
Conclusion: CDDA 99%
Signature: 90516F6B3A46839AF10F4D5FBD23525A49BA5107
FILE: 05 - Cello Suite No.2 Op.80- I. Declamato ( Largo ).flac
Size: 8330218 Hash: AE54FA7C42A07E738E0993AA77E9C688 Accuracy: -m0
Conclusion: CDDA 100%
Signature: 887A79A0B5E43DF6FC307089951A458A10297AF8
FILE: 04 - Cello Symphony Op.68- IV. Passacaglia ( Andante allegro ).flac
Size: 17524125 Hash: 8A152BB5F4FB5C485BB9209C5BA397DD Accuracy: -m0
Conclusion: CDDA 100%
Signature: 7314205E1F9FCAD07F8211A717127EE29D569E3D
FILE: 03 - Cello Symphony Op.68- III. Adagio - cadenza -.flac
Size: 23641045 Hash: 3E8E938589F40F0F87606145AF1619A9 Accuracy: -m0
Conclusion: CDDA 100%
Signature: 5894E6029293360F36892E2950199CAF0E3170E6
FILE: 02 - Cello Symphony Op.68- II. Presto inquieto.flac
Size: 9265039 Hash: 2394300D66D4AF579BBD9337B38DA32F Accuracy: -m0
Conclusion: CDDA 100%
Signature: 1F26E85737E9B74146969B512BECA04CC238CD34
FILE: 01 - Cello Symphony Op.68- I. Allegro maestoso.flac
Size: 26880243 Hash: 12B0B2A3D6910074A37DC82FDD9E0D33 Accuracy: -m0
Conclusion: CDDA 100%
Signature: 56A939517AFE3AC96C0B222E56A96092CCB314D6

Скриншот спектра частот

Скриншот Back, CD & Matrix

Доп. информация:
http://www.amazon.com/Britten-Symphony-Shostokovich-Concerto-Rostropovich/dp/B0001HAHQ4
http://www.britishcouncil.ru/en/discover-arts/music/britten-in-russia
http://www.imdb.com/name/nm0744626/bio
http://en.wikipedia.org/wiki/Mstislav_Rostropovich
Mои раздачи
[teatrix.ru].t18068.torrent 
Торрент: Зарегистрирован [ 2016-03-17 00:44 ] · 4F440E6EFF5709F00C0980144BD40B8402166AEA

Скачать .torrent

Скачать

18 KB

Статус: проверено
Скачан: 0 раз
Размер: 193 MB
terms.php



Быстрый ответ

Имя:

      
Для отправки сообщений необходимо включить JavaScript
Показать сообщения:    

Текущее время: 09-Дек 10:50

Часовой пояс: UTC + 3


Вы можете начинать темы
Вы можете отвечать на сообщения
Вы не можете редактировать свои сообщения
Вы не можете удалять свои сообщения
Вы не можете голосовать в опросах
Вы не можете прикреплять файлы к сообщениям
Вы можете скачивать файлы