(Contemporary) Renate Rusche; Berliner Symphoniker, Neil Varon etc. - Bass Clarinet (Schoeck Messiaen Celis Genzmer Erdmann) - 1993, FLAC (image+.cue) lossless


Статистика раздачи [Обновить пиров]
Размер:  236 MB   |    Зарегистрирован:  8 месяцев 25 дней   |    Скачан:  0 раз

Полного источника не было: Никогда

 
   
 
 
 

[Цитировать]

Renate Rusche - Bass Clarinet
Жанр: Contemporary
Страна-производитель диска: Germany
Год издания диска: 1993
Издатель (лейбл): MDG "Scene"
Номер по каталогу: 624 0556-2
Дата записи: 1991-1993
Аудиокодек: FLAC
Тип рипа: image+.cue
Битрейт аудио: lossless
Продолжительность: 01:06:33
Источник: скачано с avaxhome
Наличие сканов в содержимом раздачи: да
Треклист:
Schoeck - Sonata op.41
01 - I. Gemessen 5:51
02 - II. Bewegt 4:15
03 - III. Bewegt 3:11
04 Messiaen - Abîme des oiseaux 6:53
Celis - Da Uno a Cinque, for Bass Clarinet and String quartet op.27
05 - I. Andante Sostenuto - Quasi Berceuse 6:44
06 - II. Molto agitato - Allegro con fuoco - Molto tranquillo 6:36
Genzmer - Sonata
07 - I. Moderato 3:31
08 - II. Presto 1:48
09 - III. Intermezzo - Tranquillo 2:05
10 - IV. Finale Vivacissimo, Moderato 2:40
Erdmann - Concerto for Bass Clarinet and Orchestra
11 - I. Adagio, Vivace 8:08
12 - II. Adante, quasi sostenuto 4:29
13 - III. Poco Adagio, cantabile 5:22
14 - IV. Allegro grazioso 4:59
Исполнители:
Renate Rusche, bass clarinet
Stefan Pintev, 1st violin [05, 06]
Rodrigo Reichel, 2nd violin [05, 06]
Thomas Oepen, viola [05, 06]
Christof Groth, violoncello [05, 06]
Werner Hagen, piano [01-03]
Berliner Symphoniker - Neil Varon, conductor [11-14]

Лог создания рипа

Exact Audio Copy V1.0 beta 3 from 29. August 2011
EAC extraction logfile from 7. May 2013, 11:25
Renate Rusche / Bass Clarinet [Schoeck.Messiaen.Celis.Genzmer.Erdmann]
Used drive : PIONEER BD-RW BDR-206 Adapter: 0 ID: 2
Read mode : Secure
Utilize accurate stream : Yes
Defeat audio cache : Yes
Make use of C2 pointers : No
Read offset correction : 667
Overread into Lead-In and Lead-Out : No
Fill up missing offset samples with silence : Yes
Delete leading and trailing silent blocks : No
Null samples used in CRC calculations : Yes
Used interface : Native Win32 interface for Win NT & 2000
Used output format : User Defined Encoder
Selected bitrate : 1024 kBit/s
Quality : High
Add ID3 tag : Yes
Command line compressor : C:\Program Files\FLAC\flac.exe
Additional command line options : -5 -T "Artist=%artist%" -T "Title=%title%" -T "Album=%albumtitle%" -T "Date=%year%" -T "Tracknumber=%tracknr%" -T "Genre=%genre%" %source% -o %dest%
TOC of the extracted CD
Track | Start | Length | Start sector | End sector
---------------------------------------------------------
1 | 0:00.33 | 5:51.22 | 33 | 26379
2 | 5:51.55 | 4:14.60 | 26380 | 45489
3 | 10:06.40 | 3:10.68 | 45490 | 59807
4 | 13:17.33 | 6:52.50 | 59808 | 90757
5 | 20:10.08 | 6:44.00 | 90758 | 121057
6 | 26:54.08 | 6:36.25 | 121058 | 150782
7 | 33:30.33 | 3:31.25 | 150783 | 166632
8 | 37:01.58 | 1:47.62 | 166633 | 174719
9 | 38:49.45 | 2:05.13 | 174720 | 184107
10 | 40:54.58 | 2:39.50 | 184108 | 196082
11 | 43:34.33 | 8:08.15 | 196083 | 232697
12 | 51:42.48 | 4:29.05 | 232698 | 252877
13 | 56:11.53 | 5:22.25 | 252878 | 277052
14 | 61:34.03 | 4:59.35 | 277053 | 299512
Range status and errors
Selected range
Filename F:\=== VINYL RIPS ===\=== EAC===\X FRESH RIP\Renate Rusche - Bass Clarinet [Schoeck.Messiaen.Celis.Genzmer.Erdmann].wav
Peak level 95.7 %
Extraction speed 7.9 X
Range quality 99.9 %
Copy CRC 9D24DA22
Copy OK
No errors occurred
AccurateRip summary
Track 1 cannot be verified as accurate (confidence 1) [CFE2625D], AccurateRip returned [08AF4A85] (AR v2)
Track 2 not present in database
Track 3 cannot be verified as accurate (confidence 1) [04607C88], AccurateRip returned [A468C09A] (AR v2)
Track 4 cannot be verified as accurate (confidence 1) [55B14871], AccurateRip returned [B524BCF9] (AR v2)
Track 5 cannot be verified as accurate (confidence 1) [1247E499], AccurateRip returned [A7F231FC] (AR v2)
Track 6 cannot be verified as accurate (confidence 1) [14105CBC], AccurateRip returned [9176E5B4] (AR v2)
Track 7 not present in database
Track 8 not present in database
Track 9 not present in database
Track 10 not present in database
Track 11 cannot be verified as accurate (confidence 1) [B91F502C], AccurateRip returned [9C9F7681] (AR v2)
Track 12 cannot be verified as accurate (confidence 1) [8961DBB4], AccurateRip returned [7B5631C6] (AR v2)
Track 13 cannot be verified as accurate (confidence 1) [3EF5E080], AccurateRip returned [A87D014E] (AR v2)
Track 14 cannot be verified as accurate (confidence 1) [00A9B8D1], AccurateRip returned [FADC6777] (AR v2)
9 Track(s) nicht als akkurat verifiziert
5 Track(s) nicht in der AccurateRip Datenbank vorhanden
No tracks could be verified as accurate
You may have a different pressing from the one(s) in the database
End of status report
---- CUETools DB Plugin V2.1.3
[CTDB TOCID: UmxVtTRI26K2nyO3i8klHuj.2i4-] disk not present in database, Submit result: discs with pregaps not supported in this protocol version
==== Log checksum 74CE0DBF04C51DDFD5E50E4242029497C53DCB7DCE1E95E289C7CD9C1E3DA55B ====

Лог проверки качества

AUDIOCHECKER v2.0 beta (build 457) - by Dester - opdester@freemail.hu
~~~~~~~~~~~~~~~~~~~~~~~~~~~~~~~~~~
-=== DO NOT EDIT THIS FILE! ===-
Path: ...\Renate Rusche - Bass Clarinet [Schoeck.Messiaen.Celis.Genzmer.Erdmann] [MDG 624 0556-2] {Germany 1993}
1 -=- Renate Rusche - Bass Clarinet [Schoeck.Messiaen.Celis.Genzmer.Erdmann].flac -=- CDDA (100%)
196280564
[teatrix.ru].t18069.torrent 
Торрент: Зарегистрирован [ 2016-03-17 00:44 ] · 2C262C982EC96A994F5FC1C5F3E87BD957B782D5

Скачать .torrent

Скачать

20 KB

Статус: проверено
Скачан: 0 раз
Размер: 236 MB
terms.php



Быстрый ответ

Имя:

      
Для отправки сообщений необходимо включить JavaScript
Показать сообщения:    

Текущее время: 11-Дек 05:21

Часовой пояс: UTC + 3


Вы можете начинать темы
Вы можете отвечать на сообщения
Вы не можете редактировать свои сообщения
Вы не можете удалять свои сообщения
Вы не можете голосовать в опросах
Вы не можете прикреплять файлы к сообщениям
Вы можете скачивать файлы