(Classical, song, lute) Orpheus in England: Songs and Lute Solos by John Dowland and Henry Purcell - Emma Kirkby, Jakob Lindberg - 2010, FLAC (image+.cue) lossless


 

[Цитировать]

Orpheus in England: Songs and Lute Solos by John Dowland and Henry Purcell - Emma Kirkby, Jakob Lindberg
Жанр: Classical, song, lute
Страна-производитель диска: Sweden
Год издания диска: 2010
Издатель (лейбл): BIS
Номер по каталогу: BIS-CD-1725
Дата записи: 2008
Аудиокодек: FLAC
Тип рипа: image+.cue
Битрейт аудио: lossless
Продолжительность: 75:19
Источник: собственный рип
Наличие сканов в содержимом раздачи: да
Треклист:
John Dowland (1563–1626)
[1] Disdain me still (A Pilgrimes Solace, 1612)
[2] Lend your ears to my sorrow (3rd Booke of Songs or Aires, 1603)
[3] Come, heavy sleep (1st Booke of Songes or Ayres, 1597)
[4] Preludium
[5] The Earl of Essex, his Galliard (Varietie of Lute Lessons, 1610)
[6] A shepherd in a shade (2nd Booke of Songs or Ayres, 1600)
[7] By a fountain where I lay (3rd Booke of Songs or Aires, 1603)
[8] Away with these self-loving lads (1st Booke of Songes or Ayres, 1597)
[9] Lachrimæ
[10] Tarleton's Riserrectione
[11] If that a sinner's sighs (A Pilgrimes Solace, 1612)
[12] A Fantasie (Varietie of Lute Lessons, 1610)
[13] Toss not my soul (2nd Booke of Songs or Ayres, 1600)
[14] In darkness let me dwell (from A Musicall Banquet, 1610)
Henry Purcell (1659–95)
[15] She loves and she confesses too (1683)
[16] They tell us that you mighty powers above (The Indian Queen, 1695)
[17] Trumpet Tune called the Cibell
[18] Echo Dance of the Furies (Dido and Aeneas Act 2, 1689)
[19] Ritornello 'The Grove' (Dido and Aeneas Act 2, 1689)
[20] Fly swift, ye hours (1692)
[21] Oh lead me to some peaceful gloom (Bonduca or The British Heroine, 1695)
[22] What a sad fate is mine (Orpheus Britannicus Book 1, 1698)
[23] Lilliburlero. A New Irish Tune (2nd part of Musick's Handmaid, 1689)
[24] A New Scotch Tune (2nd part of Musick's Handmaid, 1689)
[25] Hornpipe
[26] A New Ground (2nd part of Musick's Handmaid, 1689)
[27] From silent shades or Bess of Bedlam (1683)
[28] Music for a while (Oedipus, 1692)
Исполнители:
Emma Kirkby soprano
Jakob Lindberg lute

Лог создания рипа

Exact Audio Copy V1.0 beta 3 from 29. August 2011
EAC extraction logfile from 12. January 2014, 20:32
Emma Kirkby, Jakob Lindberg / Orpheus in England - Dowland & Purcell
Used drive : HL-DT-STDVDRAM GSA-4083N Adapter: 1 ID: 0
Read mode : Secure
Utilize accurate stream : Yes
Defeat audio cache : Yes
Make use of C2 pointers : No
Read offset correction : 667
Overread into Lead-In and Lead-Out : No
Fill up missing offset samples with silence : Yes
Delete leading and trailing silent blocks : No
Null samples used in CRC calculations : Yes
Used interface : Native Win32 interface for Win NT & 2000
Used output format : User Defined Encoder
Selected bitrate : 896 kBit/s
Quality : High
Add ID3 tag : No
Command line compressor : C:\Program Files\Exact Audio Copy\Flac\flac.exe
Additional command line options : -V -8 %source%
TOC of the extracted CD
Track | Start | Length | Start sector | End sector
---------------------------------------------------------
1 | 0:00.00 | 3:43.08 | 0 | 16732
2 | 3:43.08 | 2:59.68 | 16733 | 30225
3 | 6:43.01 | 4:14.35 | 30226 | 49310
4 | 10:57.36 | 1:09.74 | 49311 | 54559
5 | 12:07.35 | 1:55.10 | 54560 | 63194
6 | 14:02.45 | 2:35.33 | 63195 | 74852
7 | 16:38.03 | 2:37.38 | 74853 | 86665
8 | 19:15.41 | 2:45.13 | 86666 | 99053
9 | 22:00.54 | 5:10.46 | 99054 | 122349
10 | 27:11.25 | 1:28.42 | 122350 | 128991
11 | 28:39.67 | 2:34.73 | 128992 | 140614
12 | 31:14.65 | 4:17.08 | 140615 | 159897
13 | 35:31.73 | 2:58.54 | 159898 | 173301
14 | 38:30.52 | 3:50.28 | 173302 | 190579
15 | 42:21.05 | 1:53.57 | 190580 | 199111
16 | 44:14.62 | 2:42.30 | 199112 | 211291
17 | 46:57.17 | 1:36.15 | 211292 | 218506
18 | 48:33.32 | 1:16.30 | 218507 | 224236
19 | 49:49.62 | 1:00.37 | 224237 | 228773
20 | 50:50.24 | 5:10.55 | 228774 | 252078
21 | 56:01.04 | 2:38.28 | 252079 | 263956
22 | 58:39.32 | 2:49.41 | 263957 | 276672
23 | 61:28.73 | 0:50.71 | 276673 | 280493
24 | 62:19.69 | 1:28.21 | 280494 | 287114
25 | 63:48.15 | 0:48.34 | 287115 | 290748
26 | 64:36.49 | 2:25.70 | 290749 | 301693
27 | 67:02.44 | 4:00.48 | 301694 | 319741
28 | 71:03.17 | 4:16.46 | 319742 | 338987
Range status and errors
Selected range
Filename J:\New Music\BIS-CD-1725 - Orpheus in England\Orpheus in England.wav
Peak level 100.0 %
Extraction speed 2.7 X
Range quality 99.9 %
Test CRC 47DD8C06
Copy CRC 47DD8C06
Copy OK
No errors occurred
AccurateRip summary
Track 1 accurately ripped (confidence 1) [6CA7D9C9] (AR v2)
Track 2 accurately ripped (confidence 1) [DA9FE5F2] (AR v2)
Track 3 accurately ripped (confidence 1) [143BB7F3] (AR v2)
Track 4 accurately ripped (confidence 1) [A3C8B1EE] (AR v2)
Track 5 accurately ripped (confidence 1) [A02D3676] (AR v2)
Track 6 accurately ripped (confidence 1) [B5052FB8] (AR v2)
Track 7 accurately ripped (confidence 1) [26B3476D] (AR v2)
Track 8 accurately ripped (confidence 1) [4DB4B0D7] (AR v2)
Track 9 accurately ripped (confidence 1) [FCF75863] (AR v2)
Track 10 accurately ripped (confidence 1) [BA06B349] (AR v2)
Track 11 accurately ripped (confidence 1) [AA3922A9] (AR v2)
Track 12 accurately ripped (confidence 1) [58979A7E] (AR v2)
Track 13 accurately ripped (confidence 1) [15A0E9F4] (AR v2)
Track 14 accurately ripped (confidence 1) [580C1E18] (AR v2)
Track 15 accurately ripped (confidence 1) [67D024D3] (AR v2)
Track 16 accurately ripped (confidence 1) [A5C5E565] (AR v2)
Track 17 accurately ripped (confidence 1) [185CC772] (AR v2)
Track 18 accurately ripped (confidence 1) [409AA925] (AR v2)
Track 19 accurately ripped (confidence 1) [C394CD17] (AR v2)
Track 20 accurately ripped (confidence 1) [B830640A] (AR v2)
Track 21 accurately ripped (confidence 1) [AFFD7F70] (AR v2)
Track 22 accurately ripped (confidence 1) [5F991638] (AR v2)
Track 23 accurately ripped (confidence 1) [CB474C57] (AR v2)
Track 24 accurately ripped (confidence 1) [AA50E3C9] (AR v2)
Track 25 accurately ripped (confidence 1) [5AE0C098] (AR v2)
Track 26 accurately ripped (confidence 1) [DD579933] (AR v2)
Track 27 accurately ripped (confidence 1) [6309BD58] (AR v2)
Track 28 accurately ripped (confidence 1) [68BE81B4] (AR v2)
All tracks accurately ripped
End of status report
==== Log checksum 47ACB35921008C283D07D53D190ABA64D74E5C4DDC805AB2FD12FC2407F3F886 ====



Показать сообщения:    

Текущее время: 24-Янв 12:14

Часовой пояс: UTC + 3


Вы не можете начинать темы
Вы не можете отвечать на сообщения
Вы не можете редактировать свои сообщения
Вы не можете удалять свои сообщения
Вы не можете голосовать в опросах
Вы не можете прикреплять файлы к сообщениям
Вы не можете скачивать файлы