(classical trumpet) Timofey Dokshizer / Тимофей Докшицер - Венецианский карнавал - 2012, FLAC (image+.cue) lossless


Статистика раздачи [Обновить пиров]
Размер:  296 MB   |    Зарегистрирован:  8 месяцев 23 дня   |    Скачан:  1 раз

Полного источника не было: 3 месяца 11 дней

 
   
 
 
 

[Цитировать]

Timofey Dokshizer / Тимофей Докшицер - Венецианский карнавал
Жанр: classical trumpet
Страна-производитель диска: Россия
Год издания диска: 2012
Издатель (лейбл): ООО "Артсервис"
Номер по каталогу: ART-234
Дата записи: 1978-1980
Аудиокодек: FLAC
Тип рипа: image+.cue
Битрейт аудио: lossless
Продолжительность: 54:40
Источник: собственный рип
Наличие сканов в содержимом раздачи: да
Треклист:
1. Ж.-Б. Арбан. Венецианский карнавал / J.-B. Arban. The Venetian carnival
2. В. Брандт. Концертная пьеса №1 фа минор / V. Brandt. The concert play No.1 f-moll
3. В. Брандт. Концертная пьеса №2 ми бемоль мажор / V. Brandt. The concert play No.2 Es-dur
4. А. Аренский. Концертный вальс / A. Arensky. The concert walz
5.- 7. О. Бёме. Концерт для корнета-а-пистона (или трубы) фа минор, соч.18 / O. Bohme. Concerto for cornet-a-piston (or trumpet) f-moll, op.18
8. М. Готлиб. Тема с вариациями для трубы с духовым оркестром / M. Gottlieb. The theme with variations for trumpet and win orchestra
Исполнители:
Тимофей Докшицер (труба)
1-8 Отдельный показательный оркестр Министерства обороны РФ. Дирижёры Н.Михайлов, А Мальцев.

Лог создания рипа

Exact Audio Copy V1.0 beta 3 from 29. August 2011
Отчёт EAC об извлечении, выполненном 19. января 2014, 0:26
Тимофей Докшицер/ Timofey Dokschizer / Веницианский карнавал/ The Venetian Carnival
Дисковод: HL-DT-STBD-RE BH10LS30 Adapter: 10 ID: 0
Режим чтения : Достоверность
Использование точного потока : Да
Отключение кэша аудио : Да
Использование указателей C2 : Нет
Коррекция смещения при чтении : 667
Способность читать области Lead-in и Lead-out : Нет
Заполнение пропущенных сэмплов тишиной : Да
Удаление блоков с тишиной в начале и конце : Нет
При вычислениях CRC использовались нулевые сэмплы : Да
Интерфейс : Встроенный Win32-интерфейс для Win NT/2000
Выходной формат : Пользовательский кодировщик
Выбранный битрейт : 128 kBit/s
Качество : Высокий
Добавление ID3-тега : Нет
Утилита сжатия : C:\Program Files (x86)\Exact Audio Copy\FLAC\FLAC.EXE
Дополнительные параметры : -V -8 -T "Date=%year%" -T "Genre=%genre%" %source%
TOC извлечённого CD
Трек | Старт | Длительность | Начальный сектор | Конечный сектор
---------------------------------------------------------------------
1 | 0:00.00 | 6:34.61 | 0 | 29610
2 | 6:34.61 | 8:38.17 | 29611 | 68477
3 | 15:13.03 | 7:45.25 | 68478 | 103377
4 | 22:58.28 | 3:50.38 | 103378 | 120665
5 | 26:48.66 | 7:56.35 | 120666 | 156400
6 | 34:45.26 | 4:08.44 | 156401 | 175044
7 | 38:53.70 | 3:12.59 | 175045 | 189503
8 | 42:06.54 | 12:34.09 | 189504 | 246062
Характеристики диапазона извлечения и сообщения об ошибках
Выбранный диапазон
Имя файла I:\music archive\Тимофей Докшицер, Timofey Dokschizer - Веницианский карнавал, The Venetian Carnival\Тимофей Докшицер, Timofey Dokschizer - Веницианский карнавал, The Venetian Carnival.wav
Пиковый уровень 100.0 %
Скорость извлечения 2.1 X
Качество диапазона 99.9 %
CRC теста 44F59A71
CRC копии 44F59A71
Копирование... OK
Ошибок не произошло
Конец отчёта

Содержание индексной карты (.CUE)

REM GENRE Classical
REM DATE 2012
REM DISCID 660CD008
REM COMMENT "ExactAudioCopy v1.0b3"
PERFORMER "Тимофей Докшицер/ Timofey Dokschizer"
TITLE "Веницианский карнавал/ The Venetian Carnival"
FILE "Тимофей Докшицер, Timofey Dokschizer - Веницианский карнавал, The Venetian Carnival.flac" WAVE
TRACK 01 AUDIO
TITLE "Ж.-Б.Арбан. Веницианский карнавал/ J.-B.Arban. The Venetian carnival"
PERFORMER "Тимофей Докшицер/ Timofey Dokschizer"
FLAGS DCP
INDEX 01 00:00:00
TRACK 02 AUDIO
TITLE "В.Брандт. Концертная пьеса №1 фа минор/ V.Brandt. The concert play No.1 f-moll"
PERFORMER "Тимофей Докшицер/ Timofey Dokschizer"
FLAGS DCP
INDEX 00 06:32:61
INDEX 01 06:34:61
TRACK 03 AUDIO
TITLE "В.Брандт. Концертная пьеса №2 ми бемоль мажор/ V.Brandt. The concert play No...."
PERFORMER "Тимофей Докшицер/ Timofey Dokschizer"
FLAGS DCP
INDEX 00 15:11:03
INDEX 01 15:13:03
TRACK 04 AUDIO
TITLE "А.Аренский. Концертнай вальс/ A.Arensky. The concert waltz"
PERFORMER "Тимофей Докшицер/ Timofey Dokschizer"
FLAGS DCP
INDEX 00 22:56:28
INDEX 01 22:58:28
TRACK 05 AUDIO
TITLE "О.Бёме. Концерт для корнет-а-пистона (или трубы) фа минор, соч.18/ O.Bohme. C..."
PERFORMER "Тимофей Докшицер/ Timofey Dokschizer"
FLAGS DCP
INDEX 01 26:48:66
TRACK 06 AUDIO
TITLE "О.Бёме. Концерт для корнет-а-пистона (или трубы) фа минор, соч.18/ O.Bohme. C..."
PERFORMER "Тимофей Докшицер/ Timofey Dokschizer"
FLAGS DCP
INDEX 01 34:45:26
TRACK 07 AUDIO
TITLE "О.Бёме. Концерт для корнет-а-пистона (или трубы) фа минор, соч.18/ O.Bohme. C..."
PERFORMER "Тимофей Докшицер/ Timofey Dokschizer"
FLAGS DCP
INDEX 01 38:53:70
TRACK 08 AUDIO
TITLE "М.Готлиб. Тема с вариациями для трубы с духовым оркестром/ M.Gotlieb. The the..."
PERFORMER "Тимофей Докшицер/ Timofey Dokschizer"
FLAGS DCP
INDEX 00 42:04:54
INDEX 01 42:06:54
Доп. информация: Бывают исполнители, чьё творчество оказывает большое влияние на искусство своего времени, чьё мастерство раскрывает потенциальные возможности инструмента, по давно устоявшейся традиции считавшегося сугубо оркестровым и малопригодным для сольных концертов. История знает немало подобных примеров. К такому типу музыкантов бесспорно принадлежал выдающийся музыкант, трубач Тимофей Докшицер. Благодаря творческой деятельности этого замечательного артиста труба стала желанной гостьей на концертной эстраде, а композиторы всё чаще обращаются к этому инструменту, заметно расширяя его репертуар.
Более подробно о Т. Докшицере в Музыкальной энциклопедии.
[teatrix.ru].t18074.torrent 
Торрент: Зарегистрирован [ 2016-03-17 00:44 ] · E7AF559EB13C133C288F1C6D97CC8D270866B5C1

Скачать .torrent

Скачать

13 KB

Статус: проверено
Скачан: 1 раз
Размер: 296 MB
terms.php



Быстрый ответ

Имя:

      
Для отправки сообщений необходимо включить JavaScript
Показать сообщения:    

Текущее время: 09-Дек 03:06

Часовой пояс: UTC + 3


Вы можете начинать темы
Вы можете отвечать на сообщения
Вы не можете редактировать свои сообщения
Вы не можете удалять свои сообщения
Вы не можете голосовать в опросах
Вы не можете прикреплять файлы к сообщениям
Вы можете скачивать файлы