(Classical / Symphony / Choral) Hector Berlioz - Grande Symphonie funebre et triomphale (BBC National Orchestra of Wales, Thierry Fischer) • Te Deum (Jorg Schneider, BBC Symphony Orchestra, Susanna Malkki) - 2010, FLAC (tracks+.cue) lossless


Статистика раздачи [Обновить пиров]
Размер:  320 MB   |    Зарегистрирован:  8 месяцев 23 дня   |    Скачан:  0 раз

Полного источника не было: Никогда

 
   
 
 
 

[Цитировать]

Hector Berlioz | Гектор Берлиоз
(1803–1869)



Grande Symphonie funèbre et triomphale


BBC National Orchestra of Wales (Donal Bannister trombone solo)
Thierry Fischer conductor



Te Deum


Jörg Schneider tenorSimon Preston organ
Trinity Boys ChoirThe Bach ChoirBBC Symphony Chorus
Crouch End Festival ChorusChoristers of St. Paul's Cathedral
BBC Symphony Orchestra
Susanna Mälkki conductor


Жанр: Classical / Symphony / Choral
Дата и место записи: BBC Proms, Royal Albert Hall, London, 2 & 3.VIII.2009
Формат записи: DDD, Stereo
Год издания диска: 2010
Издатель (лейбл): BBC Music
Номер по каталогу: BBC MM-317
Аудиокодек: FLAC
Тип рипа: tracks+.cue
Битрейт аудио: lossless
Продолжительность: 1:20:32
Наличие сканов в содержимом раздачи: нет
Источник: What.CD
Релизёр: TheOV


Tracklist / Треклист
Grande Symphonie funèbre et triomphale, Op. 15 - 33:30
I. Marche funèbre - 16:53
  • II. Oraison funèbre - 7:12
  • III. Apothéose - 9:26
    Te Deum, Op. 22 - 47:02
    Te Deum - 6:45
  • Tibi omnes - 10:26
  • Dignare - 7:47
  • Christe, rex gloriae - 4:42
  • Te ergo quaesumus - 7:24
  • Judex crederis - 9:58

    -

    XLD log / Отчёт XLD

    X Lossless Decoder version 20101010 (123.3)
    XLD extraction logfile from 2010-10-19 11:32:26 -0400
    Hector Berlioz / Te Deum & Symphonie funèbre et triomphale
    Used drive : HL-DT-ST DVDRW GS23N (revision SB03)
    Use cdparanoia mode : YES (CDParanoia III 10.2 engine)
    Disable audio cache : OK for the drive with cache less than 2750KB
    Make use of C2 pointers : NO
    Read offset correction : 667
    Max retry count : 100
    Gap status : Analyzed, Appended
    TOC of the extracted CD
    Track | Start | Length | Start sector | End sector
    ---------------------------------------------------------
    1 | 00:00:00 | 16:53:18 | 0 | 75992
    2 | 16:53:18 | 07:11:51 | 75993 | 108368
    3 | 24:04:69 | 09:25:43 | 108369 | 150786
    4 | 33:30:37 | 06:44:72 | 150787 | 181158
    5 | 40:15:34 | 10:25:50 | 181159 | 228083
    6 | 50:41:09 | 07:46:57 | 228084 | 263090
    7 | 58:27:66 | 04:42:22 | 263091 | 284262
    8 | 63:10:13 | 07:23:57 | 284263 | 317544
    9 | 70:33:70 | 09:58:22 | 317545 | 362416
    List of alternate offset correction values
    # | Absolute | Relative | Confidence
    ------------------------------------------
    1 | 661 | -6 | 7
    All Tracks
    Album gain : 1.72 dB
    Peak : 0.955109
    Track 01
    Filename : /Users/harangozo/Rips/Hector Berlioz - 2010 - Te Deum & Symphonie funèbre et triomphale/01 Te Deum.flac
    Pre-gap length : 00:02:00
    Track gain : 1.13 dB
    Peak : 0.955109
    CRC32 hash (test run) : DADF56C0
    CRC32 hash : DADF56C0
    CRC32 hash (skip zero) : 7A70F5C7
    AccurateRip signature : 27297344
    ->Accurately ripped! (confidence 3)
    Statistics
    Read error : 0
    Skipped (treated as error) : 0
    Edge jitter error (maybe fixed) : 0
    Atom jitter error (maybe fixed) : 0
    Drift error (maybe fixed) : 0
    Dropped bytes error (maybe fixed) : 0
    Duplicated bytes error (maybe fixed) : 0
    Inconsistency in error sectors : 0
    Track 02
    Filename : /Users/harangozo/Rips/Hector Berlioz - 2010 - Te Deum & Symphonie funèbre et triomphale/02 Tibi omnes.flac
    Track gain : 2.89 dB
    Peak : 0.557373
    CRC32 hash (test run) : 7145DA47
    CRC32 hash : 7145DA47
    CRC32 hash (skip zero) : D7ECCE34
    AccurateRip signature : 0DED1F59
    ->Accurately ripped! (confidence 3)
    Statistics
    Read error : 0
    Skipped (treated as error) : 0
    Edge jitter error (maybe fixed) : 0
    Atom jitter error (maybe fixed) : 0
    Drift error (maybe fixed) : 0
    Dropped bytes error (maybe fixed) : 0
    Duplicated bytes error (maybe fixed) : 0
    Inconsistency in error sectors : 0
    Track 03
    Filename : /Users/harangozo/Rips/Hector Berlioz - 2010 - Te Deum & Symphonie funèbre et triomphale/03 Dignare, Domine.flac
    Track gain : 0.85 dB
    Peak : 0.876221
    CRC32 hash (test run) : B4438CF4
    CRC32 hash : B4438CF4
    CRC32 hash (skip zero) : 515DE116
    AccurateRip signature : CCAF4DD3
    ->Accurately ripped! (confidence 3)
    Statistics
    Read error : 0
    Skipped (treated as error) : 0
    Edge jitter error (maybe fixed) : 0
    Atom jitter error (maybe fixed) : 0
    Drift error (maybe fixed) : 0
    Dropped bytes error (maybe fixed) : 0
    Duplicated bytes error (maybe fixed) : 0
    Inconsistency in error sectors : 0
    Track 04
    Filename : /Users/harangozo/Rips/Hector Berlioz - 2010 - Te Deum & Symphonie funèbre et triomphale/04 Christe, rex gloriae.flac
    Pre-gap length : 00:06:33
    Track gain : 0.54 dB
    Peak : 0.836273
    CRC32 hash (test run) : 92974D2E
    CRC32 hash : 92974D2E
    CRC32 hash (skip zero) : C0462B96
    AccurateRip signature : C85FCDE0
    ->Accurately ripped! (confidence 3)
    Statistics
    Read error : 0
    Skipped (treated as error) : 0
    Edge jitter error (maybe fixed) : 0
    Atom jitter error (maybe fixed) : 0
    Drift error (maybe fixed) : 0
    Dropped bytes error (maybe fixed) : 0
    Duplicated bytes error (maybe fixed) : 0
    Inconsistency in error sectors : 0
    Track 05
    Filename : /Users/harangozo/Rips/Hector Berlioz - 2010 - Te Deum & Symphonie funèbre et triomphale/05 Te ergo quaesumus.flac
    Track gain : 3.32 dB
    Peak : 0.758636
    CRC32 hash (test run) : 81CA4B9D
    CRC32 hash : 81CA4B9D
    CRC32 hash (skip zero) : 8C195038
    AccurateRip signature : AEA08A0C
    ->Accurately ripped! (confidence 3)
    Statistics
    Read error : 0
    Skipped (treated as error) : 0
    Edge jitter error (maybe fixed) : 0
    Atom jitter error (maybe fixed) : 0
    Drift error (maybe fixed) : 0
    Dropped bytes error (maybe fixed) : 0
    Duplicated bytes error (maybe fixed) : 0
    Inconsistency in error sectors : 0
    Track 06
    Filename : /Users/harangozo/Rips/Hector Berlioz - 2010 - Te Deum & Symphonie funèbre et triomphale/06 Judex crederis.flac
    Track gain : 10.20 dB
    Peak : 0.447723
    CRC32 hash (test run) : FF4651C2
    CRC32 hash : FF4651C2
    CRC32 hash (skip zero) : ABB2E7CC
    AccurateRip signature : 4F2D9FAF
    ->Accurately ripped! (confidence 3)
    Statistics
    Read error : 0
    Skipped (treated as error) : 0
    Edge jitter error (maybe fixed) : 0
    Atom jitter error (maybe fixed) : 0
    Drift error (maybe fixed) : 0
    Dropped bytes error (maybe fixed) : 0
    Duplicated bytes error (maybe fixed) : 0
    Inconsistency in error sectors : 0
    Track 07
    Filename : /Users/harangozo/Rips/Hector Berlioz - 2010 - Te Deum & Symphonie funèbre et triomphale/07 Marche funèbre.flac
    Track gain : 0.64 dB
    Peak : 0.729950
    CRC32 hash (test run) : 877D27C1
    CRC32 hash : 877D27C1
    CRC32 hash (skip zero) : 2D5CF9E3
    AccurateRip signature : 17C05AA8
    ->Accurately ripped! (confidence 3)
    Statistics
    Read error : 0
    Skipped (treated as error) : 0
    Edge jitter error (maybe fixed) : 0
    Atom jitter error (maybe fixed) : 0
    Drift error (maybe fixed) : 0
    Dropped bytes error (maybe fixed) : 0
    Duplicated bytes error (maybe fixed) : 0
    Inconsistency in error sectors : 0
    Track 08
    Filename : /Users/harangozo/Rips/Hector Berlioz - 2010 - Te Deum & Symphonie funèbre et triomphale/08 Oraison funèbre.flac
    Track gain : 13.07 dB
    Peak : 0.234802
    CRC32 hash (test run) : 65B9A2EA
    CRC32 hash : 65B9A2EA
    CRC32 hash (skip zero) : F1EBBA4F
    AccurateRip signature : AF152AC4
    ->Accurately ripped! (confidence 3)
    Statistics
    Read error : 0
    Skipped (treated as error) : 0
    Edge jitter error (maybe fixed) : 0
    Atom jitter error (maybe fixed) : 0
    Drift error (maybe fixed) : 0
    Dropped bytes error (maybe fixed) : 0
    Duplicated bytes error (maybe fixed) : 0
    Inconsistency in error sectors : 0
    Track 09
    Filename : /Users/harangozo/Rips/Hector Berlioz - 2010 - Te Deum & Symphonie funèbre et triomphale/09 Apothéose.flac
    Track gain : 1.00 dB
    Peak : 0.945984
    CRC32 hash (test run) : 218157BC
    CRC32 hash : 218157BC
    CRC32 hash (skip zero) : 76FD8CB0
    AccurateRip signature : FB968A21
    ->Accurately ripped! (confidence 3)
    Statistics
    Read error : 0
    Skipped (treated as error) : 0
    Edge jitter error (maybe fixed) : 0
    Atom jitter error (maybe fixed) : 0
    Drift error (maybe fixed) : 0
    Dropped bytes error (maybe fixed) : 0
    Duplicated bytes error (maybe fixed) : 0
    Inconsistency in error sectors : 0
    No errors occurred
    End of status report

    auCDtect Task Manager log / Отчёт auCDtect Task Manager

    -----------------------
    DON'T MODIFY THIS FILE
    -----------------------
    PERFORMER: auCDtect Task Manager, ver. 1.5.1RC3 build 1.5.1.4
    Copyright (c) 2008-2010 y-soft. All rights reserved
    ANALYZER: auCDtect: CD records authenticity detector, version 0.8.2
    Copyright (c) 2004 Oleg Berngardt. All rights reserved.
    Copyright (c) 2004 Alexander Djourik. All rights reserved.
    FILE: 05 - Te Deum, Op. 22 - Tibi omnes.flac
    Size: 39447507 Hash: F93A4914A07BB6FC1A848AB19421A246 Accuracy: -m0
    Conclusion: CDDA 100%
    Signature: 7E5D2E29209ECE8255700B42C267AB6D60D4B4C0
    FILE: 04 - Te Deum, Op. 22 - Te Deum.flac
    Size: 30874161 Hash: E112FC852B4F5839E03F1F71F2EF3239 Accuracy: -m0
    Conclusion: CDDA 100%
    Signature: 32137FBCEF301C6D79D128287105E997FC31B750
    FILE: 03 - Grande Symphonie funebre et triomphale, Op. 15 - III. Apotheose.flac
    Size: 49245663 Hash: 474E351E0600AE232969A2E314ED5EC9 Accuracy: -m0
    Conclusion: CDDA 100%
    Signature: 798A0F47EB758D01AE75C46E6D1C09803FB455B2
    FILE: 02 - Grande Symphonie funebre et triomphale, Op. 15 - II. Oraison funebre.flac
    Size: 24430976 Hash: C7FFF104671D7E54A9803FE4D06FAAC3 Accuracy: -m0
    Conclusion: CDDA 100%
    Signature: FFC4A14FFD157DECC96B474C0D7688E560AD7E13
    FILE: 01 - Grande Symphonie funebre et triomphale, Op. 15 - I. Marche funebre.flac
    Size: 69808967 Hash: 9ADF9B0470224D3D89DADAC39EDC85DB Accuracy: -m0
    Conclusion: CDDA 99%
    Signature: E57A53A791A68136CA082060A206FCB6770B77CC
    FILE: 09 - Te Deum, Op. 22 - Judex crederis.flac
    Size: 48683046 Hash: 6A5775CAB8CCFB1FEEDF1AC96DBE5782 Accuracy: -m0
    Conclusion: CDDA 100%
    Signature: 6026683A74743E7244460EE915184428F97206D8
    FILE: 08 - Te Deum, Op. 22 - Te ergo quaesumus.flac
    Size: 25398226 Hash: 54881D9274DB62B20E581177E1724043 Accuracy: -m0
    Conclusion: CDDA 100%
    Signature: 18BEEC0F71ABCE2329195C79047A98059231B8A5
    FILE: 07 - Te Deum, Op. 22 - Christe, rex gloriae.flac
    Size: 21979502 Hash: 67CB81DBEFD9E8B80467BF956260ED4A Accuracy: -m0
    Conclusion: CDDA 100%
    Signature: ACE9551FA0AF286F5CB9424DDFE73E496B11B4C6
    FILE: 06 - Te Deum, Op. 22 - Dignare.flac
    Size: 25879901 Hash: C8DB7C24CB4AD18A68874DD825602BDE Accuracy: -m0
    Conclusion: CDDA 100%
    Signature: 096279958CF3D5B0D31080CFBFE6A0174F557005

    CUETools log / Отчёт CUETools

    [CUETools log; Date: 19.01.2014 18:23:14; Version: 2.1.4]
    [AccurateRip ID: 001e15fc-00d4e565-6912e009] found.
    Track [ CRC | V2 ] Status
    01 [27297344|eeb14a68] (04+04/21) Accurately ripped
    02 [0ded1f59|e37959ce] (04+04/22) Accurately ripped
    03 [ccaf4dd3|65f7f55c] (04+04/21) Accurately ripped
    04 [c85fcde0|ec766783] (04+04/22) Accurately ripped
    05 [aea08a0c|47cb1db6] (04+04/22) Accurately ripped
    06 [4f2d9faf|563b978f] (04+04/22) Accurately ripped
    07 [17c05aa8|bc184bbb] (04+04/22) Accurately ripped
    08 [af152ac4|5c430834] (04+04/22) Accurately ripped
    09 [fb968a21|b6377c5d] (04+04/22) Accurately ripped
    Offsetted by -6:
    01 [4a682a9f] (10/21) Accurately ripped
    02 [1093c4be] (11/22) Accurately ripped
    03 [0f70e0a0] (10/21) Accurately ripped
    04 [de29d11f] (11/22) Accurately ripped
    05 [e85a35cd] (11/22) Accurately ripped
    06 [927ffbf8] (11/22) Accurately ripped
    07 [805eeee3] (11/22) Accurately ripped
    08 [2a1b81f1] (11/22) Accurately ripped
    09 [92de2be2] (11/22) Accurately ripped
    Track Peak [ CRC32 ] [W/O NULL]
    -- 95,5 [02B80AB1] [44FD523A]
    01 95,5 [DADF56C0] [7A70F5C7]
    02 55,7 [7145DA47] [D7ECCE34]
    03 87,6 [B4438CF4] [515DE116]
    04 83,6 [92974D2E] [C0462B96]
    05 75,8 [81CA4B9D] [8C195038]
    06 44,7 [FF4651C2] [ABB2E7CC]
    07 72,9 [877D27C1] [2D5CF9E3]
    08 23,4 [65B9A2EA] [F1EBBA4F]
    09 94,5 [218157BC] [76FD8CB0]

    CUE sheet

    TITLE "Hector Berlioz: Grande Symphonie funèbre et triomphale • Te Deum"
    PERFORMER "Various"
    REM GENRE Classical
    REM DISCID 6912E009
    FILE "01 - Grande Symphonie funebre et triomphale, Op. 15 - I. Marche funebre.flac" WAVE
    TRACK 01 AUDIO
    TITLE "Grande Symphonie funèbre et triomphale, Op. 15: I. Marche funèbre"
    PERFORMER "BBC National Orchestra of Wales. Thierry Fischer, conductor"
    REM DATE 2009
    INDEX 01 00:00:00
    FILE "02 - Grande Symphonie funebre et triomphale, Op. 15 - II. Oraison funebre.flac" WAVE
    TRACK 02 AUDIO
    TITLE "Grande Symphonie funèbre et triomphale, Op. 15: II. Oraison funèbre"
    PERFORMER "Donal Bannister (trombone), BBC National Orchestra of Wales. Thierry Fischer, conductor"
    REM DATE 2009
    INDEX 01 00:00:00
    FILE "03 - Grande Symphonie funebre et triomphale, Op. 15 - III. Apotheose.flac" WAVE
    TRACK 03 AUDIO
    TITLE "Grande Symphonie funèbre et triomphale, Op. 15: III. Apothéose"
    PERFORMER "BBC National Orchestra of Wales. Thierry Fischer, conductor"
    REM DATE 2009
    INDEX 01 00:00:00
    TRACK 04 AUDIO
    TITLE "Te Deum, Op. 22: Te Deum"
    PERFORMER "Various Choruses, Simon Preston (organ), BBC Symphony Orchestra. Susanna Mälkki, conductor"
    REM DATE 2009
    INDEX 00 09:19:10
    FILE "04 - Te Deum, Op. 22 - Te Deum.flac" WAVE
    INDEX 01 00:00:00
    FILE "05 - Te Deum, Op. 22 - Tibi omnes.flac" WAVE
    TRACK 05 AUDIO
    TITLE "Te Deum, Op. 22: Tibi omnes"
    PERFORMER "Various Choruses, Simon Preston (organ), BBC Symphony Orchestra. Susanna Mälkki, conductor"
    REM DATE 2009
    INDEX 01 00:00:00
    FILE "06 - Te Deum, Op. 22 - Dignare.flac" WAVE
    TRACK 06 AUDIO
    TITLE "Te Deum, Op. 22: Dignare"
    PERFORMER "Various Choruses, Simon Preston (organ), BBC Symphony Orchestra. Susanna Mälkki, conductor"
    REM DATE 2009
    INDEX 01 00:00:00
    FILE "07 - Te Deum, Op. 22 - Christe, rex gloriae.flac" WAVE
    TRACK 07 AUDIO
    TITLE "Te Deum, Op. 22: Christe, rex gloriae"
    PERFORMER "Various Choruses, Simon Preston (organ), BBC Symphony Orchestra. Susanna Mälkki, conductor"
    REM DATE 2009
    INDEX 01 00:00:00
    FILE "08 - Te Deum, Op. 22 - Te ergo quaesumus.flac" WAVE
    TRACK 08 AUDIO
    TITLE "Te Deum, Op. 22: Te ergo quaesumus"
    PERFORMER "Jörg Schneider (tenor), Various Choruses, Simon Preston (organ), BBC Symphony Orchestra. Susanna Mälkki, conductor"
    REM DATE 2009
    INDEX 01 00:00:00
    FILE "09 - Te Deum, Op. 22 - Judex crederis.flac" WAVE
    TRACK 09 AUDIO
    TITLE "Te Deum, Op. 22: Judex crederis"
    PERFORMER "Various Choruses, Simon Preston (organ), BBC Symphony Orchestra. Susanna Mälkki, conductor"
    REM DATE 2009
    INDEX 01 00:00:00
    -
    Hector Berlioz — каталог раздач на rutracker.orgВсе мои раздачи / All my releases
    [teatrix.ru].t18076.torrent 
    Торрент: Зарегистрирован [ 2016-03-17 00:44 ] · F98999834A2A42B0F4CEF49943A94088533C1EFD

    Скачать .torrent

    Скачать

    15 KB

    Статус: проверено
    Скачан: 0 раз
    Размер: 320 MB
    terms.php



  • Быстрый ответ

    Имя:

          
    Для отправки сообщений необходимо включить JavaScript
    Показать сообщения:    

    Текущее время: 10-Дек 00:23

    Часовой пояс: UTC + 3


    Вы можете начинать темы
    Вы можете отвечать на сообщения
    Вы не можете редактировать свои сообщения
    Вы не можете удалять свои сообщения
    Вы не можете голосовать в опросах
    Вы не можете прикреплять файлы к сообщениям
    Вы можете скачивать файлы