(Classical / Piano Concerto / Piano Quintet) Robert Schumann - Klavierkonzert • Klavierquintett (Maria Joao Pires, Augustin Dumay, Renaud Capucon, Gerard Causse, Jian Wang, Claudio Abbado, 1997/1999) - 2000, FLAC (tracks+.cue) lossless


Статистика раздачи [Обновить пиров]
Размер:  237 MB   |    Зарегистрирован:  8 месяцев 19 дней   |    Скачан:  0 раз

Полного источника не было: Никогда

 
   
 
 
 

[Цитировать]

Robert Schumann | Роберт Шуманн
(1810–1856)



Konzert für Klavier und Orchester | Quintett für Klavier und Streicher
Концерт для фортепиано с оркестром | Квинтет для фортепиано и струнных


Maria João Pires piano
Augustin Dumay violin IRenaud Capuçon violin IIGérard Caussé violaJian Wang cello
Chamber Orchestra of Europe
Claudio Abbado conductor


Жанр: Classical / Piano Concerto / Piano Quintet
Даты записи: 1997, 1999
Формат записи: DDD, Stereo
Год издания диска: 2000
Издатель (лейбл): Deutsche Grammophon
Номер по каталогу: 463 179-2
Аудиокодек: FLAC
Тип рипа: tracks+.cue
Битрейт аудио: lossless
Продолжительность: 1:02:03
Наличие сканов в содержимом раздачи: передняя и задняя обложки
Источник: What.CD
Релизёр: DJkarlsbad


Tracklist / Треклист
Klavierkonzert a-moll, Op. 54 - 31:57
I. Allegro affettuoso - 15:35
  • II. Intermezzo: Andantino grazioso - 5:04
  • III. Allegro vivace - 11:18
    Recorded: Jesus-Christus-Kirche, Berlin, September 1997
    Klavierquintett Es-dur, Op. 44 - 30:06
    I. Allegro brillante - 8:59
  • II. In modo d'una marcia. Un poco largamente - 9:08
  • III. Scherzo: Molto vivace - 4:38
  • IV. Allegro, ma non troppo - 7:21
    Recorded: The Maltings, Concert Hall, Snape, Suffolk, September 1999

    -

    XLD log / Отчёт XLD

    X Lossless Decoder version 20121027 (142.1)
    XLD extraction logfile from 2012-12-25 09:53:01 -0500
    Various Artists / Schumann: Piano Concerto, Piano Quintet
    Used drive : HL-DT-ST DVD-RW GWA-4165B (revision Q002)
    Ripper mode : XLD Secure Ripper
    Disable audio cache : OK for the drive with a cache less than 1375KiB
    Make use of C2 pointers : NO
    Read offset correction : 667
    Max retry count : 20
    Gap status : Analyzed, Appended (except HTOA)
    TOC of the extracted CD
    Track | Start | Length | Start sector | End sector
    ---------------------------------------------------------
    1 | 00:00:00 | 15:35:00 | 0 | 70124
    2 | 15:35:00 | 05:03:72 | 70125 | 92921
    3 | 20:38:72 | 11:18:03 | 92922 | 143774
    4 | 31:57:00 | 08:59:00 | 143775 | 184199
    5 | 40:56:00 | 09:08:00 | 184200 | 225299
    6 | 50:04:00 | 04:38:00 | 225300 | 246149
    7 | 54:42:00 | 07:21:00 | 246150 | 279224
    AccurateRip Summary (DiscID: 0012f261-006e39d7-5d0e8b07)
    Track 01 : OK (v1, confidence 4/4)
    Track 02 : OK (v1, confidence 4/4)
    Track 03 : OK (v1, confidence 4/4)
    Track 04 : OK (v1, confidence 3/3)
    Track 05 : OK (v1, confidence 3/3)
    Track 06 : OK (v1, confidence 3/3)
    Track 07 : OK (v1, confidence 3/3)
    ->All tracks accurately ripped.
    All Tracks
    Album gain : -0.90 dB
    Peak : 0.999939
    Statistics
    Read error : 0
    Jitter error (maybe fixed) : 0
    Retry sector count : 0
    Damaged sector count : 0
    Track 01
    Filename : /Users/user/Music/Various Artists - Schumann: Piano Concerto, Piano Quintet (1997) [FLAC]/01 Schumann: Piano Concerto In A Minor, Op. 54 - 1. Allegro Affettuoso.flac
    Pre-gap length : 00:02:00
    Track gain : 0.03 dB
    Peak : 0.999939
    CRC32 hash (test run) : 87B3B772
    CRC32 hash : 87B3B772
    CRC32 hash (skip zero) : 458675F1
    AccurateRip v1 signature : C2CC4289
    AccurateRip v2 signature : 494FC6F1
    ->Accurately ripped (v1, confidence 4/4)
    Statistics
    Read error : 0
    Jitter error (maybe fixed) : 0
    Retry sector count : 0
    Damaged sector count : 0
    Track 02
    Filename : /Users/user/Music/Various Artists - Schumann: Piano Concerto, Piano Quintet (1997) [FLAC]/02 Schumann: Piano Concerto In A Minor, Op. 54 - 2. Intermezzo.flac
    Track gain : 5.89 dB
    Peak : 0.390747
    CRC32 hash (test run) : 3C32912F
    CRC32 hash : 3C32912F
    CRC32 hash (skip zero) : A46D05BB
    AccurateRip v1 signature : A9EB2C28
    AccurateRip v2 signature : 43D20E6E
    ->Accurately ripped (v1, confidence 4/4)
    Statistics
    Read error : 0
    Jitter error (maybe fixed) : 0
    Retry sector count : 0
    Damaged sector count : 0
    Track 03
    Filename : /Users/user/Music/Various Artists - Schumann: Piano Concerto, Piano Quintet (1997) [FLAC]/03 Schumann: Piano Concerto In A Minor, Op. 54 - 3. Allegro Vivace.flac
    Track gain : -1.53 dB
    Peak : 0.999939
    CRC32 hash (test run) : EB386C87
    CRC32 hash : EB386C87
    CRC32 hash (skip zero) : 655361BA
    AccurateRip v1 signature : 20DBB12A
    AccurateRip v2 signature : D4511B5D
    ->Accurately ripped (v1, confidence 4/4)
    Statistics
    Read error : 0
    Jitter error (maybe fixed) : 0
    Retry sector count : 0
    Damaged sector count : 0
    Track 04
    Filename : /Users/user/Music/Various Artists - Schumann: Piano Concerto, Piano Quintet (1999) [FLAC]/04 Schumann: Piano Quintet In E Flat, Op. 44 - 1. Allegro Brillante.flac
    Pre-gap length : 00:07:00
    Track gain : -0.79 dB
    Peak : 0.900909
    CRC32 hash (test run) : 8E1E9687
    CRC32 hash : 8E1E9687
    CRC32 hash (skip zero) : 07B45FCB
    AccurateRip v1 signature : 0F8AFA0E
    AccurateRip v2 signature : B1AF00BE
    ->Accurately ripped (v1, confidence 3/3)
    Statistics
    Read error : 0
    Jitter error (maybe fixed) : 0
    Retry sector count : 0
    Damaged sector count : 0
    Track 05
    Filename : /Users/user/Music/Various Artists - Schumann: Piano Concerto, Piano Quintet (1999) [FLAC]/05 Schumann: Piano Quintet In E Flat, Op. 44 - 2. In Modo D'Una Marcia.flac
    Track gain : 2.25 dB
    Peak : 0.840271
    CRC32 hash (test run) : 8F7E6ACC
    CRC32 hash : 8F7E6ACC
    CRC32 hash (skip zero) : A7C05815
    AccurateRip v1 signature : DD169E55
    AccurateRip v2 signature : FBFCDB59
    ->Accurately ripped (v1, confidence 3/3)
    Statistics
    Read error : 0
    Jitter error (maybe fixed) : 0
    Retry sector count : 0
    Damaged sector count : 0
    Track 06
    Filename : /Users/user/Music/Various Artists - Schumann: Piano Concerto, Piano Quintet (1999) [FLAC]/06 Schumann: Piano Quintet In E Flat, Op. 44 - 3. Scherzo Molto Vivace.flac
    Track gain : -1.02 dB
    Peak : 0.843872
    CRC32 hash (test run) : 2A3F98BA
    CRC32 hash : 2A3F98BA
    CRC32 hash (skip zero) : 1D0EEE84
    AccurateRip v1 signature : 5F0D9EE6
    AccurateRip v2 signature : 69C81686
    ->Accurately ripped (v1, confidence 3/3)
    Statistics
    Read error : 0
    Jitter error (maybe fixed) : 0
    Retry sector count : 0
    Damaged sector count : 0
    Track 07
    Filename : /Users/user/Music/Various Artists - Schumann: Piano Concerto, Piano Quintet (1999) [FLAC]/07 Schumann: Piano Quintet In E Flat, Op. 44 - 4. Allegro, Ma Non Troppo.flac
    Track gain : -2.66 dB
    Peak : 0.925507
    CRC32 hash (test run) : 9D16D081
    CRC32 hash : 9D16D081
    CRC32 hash (skip zero) : AEB84D79
    AccurateRip v1 signature : DA2626CD
    AccurateRip v2 signature : AB227932
    ->Accurately ripped (v1, confidence 3/3)
    Statistics
    Read error : 0
    Jitter error (maybe fixed) : 0
    Retry sector count : 0
    Damaged sector count : 0
    No errors occurred
    End of status report

    auCDtect Task Manager log / Отчёт auCDtect Task Manager

    -----------------------
    DON'T MODIFY THIS FILE
    -----------------------
    PERFORMER: auCDtect Task Manager, ver. 1.5.1RC3 build 1.5.1.4
    Copyright (c) 2008-2010 y-soft. All rights reserved
    ANALYZER: auCDtect: CD records authenticity detector, version 0.8.2
    Copyright (c) 2004 Oleg Berngardt. All rights reserved.
    Copyright (c) 2004 Alexander Djourik. All rights reserved.
    FILE: 04 - Klavierquintett Es-dur, Op. 44 - I. Allegro brillante.flac
    Size: 39141912 Hash: 2BDE25599C7945D10E0729F94F946A8F Accuracy: -m0
    Conclusion: CDDA 100%
    Signature: 242C7AEB7EAB0B73FFA30D789A118B80F2F9CC8E
    FILE: 03 - Klavierkonzert a-moll, Op. 54 - III. Allegro vivace.flac
    Size: 46695233 Hash: 822D3CF78026D9A650F73579ED5B719B Accuracy: -m0
    Conclusion: CDDA 100%
    Signature: A2A1B03E898388E2AF77A323795D8C8C0DD165CD
    FILE: 02 - Klavierkonzert a-moll, Op. 54 - II. Intermezzo. Andantino grazioso.flac
    Size: 17055798 Hash: A34C7F8BA90B420C22A2222311A7C27A Accuracy: -m0
    Conclusion: CDDA 100%
    Signature: 85B32ED03380D698F2F775DADA674CA1556F64EF
    FILE: 01 - Klavierkonzert a-moll, Op. 54 - I. Allegro affettuoso.flac
    Size: 57943356 Hash: 9EAEAE02AA1B2A2D9C3048CC98F9613C Accuracy: -m0
    Conclusion: CDDA 99%
    Signature: BAAF2DDFF21CB9BD08CFD258C0B98167545D66A9
    FILE: 07 - Klavierquintett Es-dur, Op. 44 - IV. Allegro, ma non troppo.flac
    Size: 34155818 Hash: 81B41F38A3A21E4D9AC5B1889F47C1D1 Accuracy: -m0
    Conclusion: CDDA 100%
    Signature: D1C6D4AD24698A61559D4DE7F306EB35D15BDE71
    FILE: 06 - Klavierquintett Es-dur, Op. 44 - III. Scherzo. Molto vivace.flac
    Size: 20993995 Hash: 006B89B3180BDC6F7CB8AEE61BE1E0EF Accuracy: -m0
    Conclusion: CDDA 100%
    Signature: 5830658409E9DE2ABF1FFE2E2B0A548E7F6330C9
    FILE: 05 - Klavierquintett Es-dur, Op. 44 - II. In modo d'una marcia. Un poco largamente.flac
    Size: 32184743 Hash: 7B199EA63BC886314AF56037F5535ACB Accuracy: -m0
    Conclusion: CDDA 100%
    Signature: 225E4EF119922286BCC654E9789383C08F754413

    CUETools log / Отчёт CUETools

    [CUETools log; Date: 21.01.2014 12:37:23; Version: 2.1.4]
    [AccurateRip ID: 0012f261-006e39d7-5d0e8b07] found.
    Track [ CRC | V2 ] Status
    01 [c2cc4289|494fc6f1] (04+02/10) Accurately ripped
    02 [a9eb2c28|43d20e6e] (04+02/10) Accurately ripped
    03 [20dbb12a|d4511b5d] (04+02/10) Accurately ripped
    04 [0f8afa0e|b1af00be] (03+02/08) Accurately ripped
    05 [dd169e55|fbfcdb59] (03+02/09) Accurately ripped
    06 [5f0d9ee6|69c81686] (03+02/09) Accurately ripped
    07 [da2626cd|ab227932] (03+02/09) Accurately ripped
    Offsetted by 31:
    01 [4088f014] (00/10) No match (V2 was not tested)
    02 [ce81a10d] (00/10) No match (V2 was not tested)
    03 [35410f07] (00/10) No match (V2 was not tested)
    04 [1e7ce5c8] (00/08) No match (V2 was not tested)
    05 [7afc01d0] (00/09) No match (V2 was not tested)
    06 [6a66fbc4] (00/09) No match (V2 was not tested)
    07 [b91efffe] (00/09) No match (V2 was not tested)
    Track Peak [ CRC32 ] [W/O NULL]
    -- 99,9 [EA0E7562] [D556CCF2]
    01 99,9 [87B3B772] [458675F1]
    02 39,0 [3C32912F] [A46D05BB]
    03 99,9 [EB386C87] [655361BA]
    04 90,0 [8E1E9687] [07B45FCB]
    05 84,0 [8F7E6ACC] [A7C05815]
    06 84,3 [2A3F98BA] [1D0EEE84]
    07 92,5 [9D16D081] [AEB84D79]

    CUE sheet

    TITLE "Robert Schumann: Klavierkonzert • Klavierquintett"
    PERFORMER "Various"
    CATALOG 0028946317921
    REM GENRE Classical
    REM DISCID 5D0E8B07
    REM REPLAYGAIN_ALBUM_GAIN -0.90 dB
    REM REPLAYGAIN_ALBUM_PEAK 0.999939
    FILE "01 - Klavierkonzert a-moll, Op. 54 - I. Allegro affettuoso.flac" WAVE
    TRACK 01 AUDIO
    TITLE "Klavierkonzert a-moll, Op. 54: I. Allegro affettuoso"
    PERFORMER "Maria João Pires, Chamber Orchestra of Europe. Claudio Abbado, conductor"
    REM DATE 1997
    REM REPLAYGAIN_TRACK_GAIN 0.03 dB
    REM REPLAYGAIN_TRACK_PEAK 0.999939
    INDEX 01 00:00:00
    FILE "02 - Klavierkonzert a-moll, Op. 54 - II. Intermezzo. Andantino grazioso.flac" WAVE
    TRACK 02 AUDIO
    TITLE "Klavierkonzert a-moll, Op. 54: II. Intermezzo: Andantino grazioso"
    PERFORMER "Maria João Pires, Chamber Orchestra of Europe. Claudio Abbado, conductor"
    REM DATE 1997
    REM REPLAYGAIN_TRACK_GAIN 5.89 dB
    REM REPLAYGAIN_TRACK_PEAK 0.390747
    INDEX 01 00:00:00
    FILE "03 - Klavierkonzert a-moll, Op. 54 - III. Allegro vivace.flac" WAVE
    TRACK 03 AUDIO
    TITLE "Klavierkonzert a-moll, Op. 54: III. Allegro vivace"
    PERFORMER "Maria João Pires, Chamber Orchestra of Europe. Claudio Abbado, conductor"
    REM DATE 1997
    REM REPLAYGAIN_TRACK_GAIN -1.53 dB
    REM REPLAYGAIN_TRACK_PEAK 0.999939
    INDEX 01 00:00:00
    TRACK 04 AUDIO
    TITLE "Klavierquintett Es-dur, Op. 44: I. Allegro brillante"
    PERFORMER "Maria João Pires, Augustin Dumay, Renaud Capuçon, Gérard Caussé, Jian Wang"
    REM DATE 1999
    REM REPLAYGAIN_TRACK_GAIN -0.79 dB
    REM REPLAYGAIN_TRACK_PEAK 0.900909
    INDEX 00 11:11:03
    FILE "04 - Klavierquintett Es-dur, Op. 44 - I. Allegro brillante.flac" WAVE
    INDEX 01 00:00:00
    FILE "05 - Klavierquintett Es-dur, Op. 44 - II. In modo d'una marcia. Un poco largamente.flac" WAVE
    TRACK 05 AUDIO
    TITLE "Klavierquintett Es-dur, Op. 44: II. In modo d'una marcia. Un poco largamente"
    PERFORMER "Maria João Pires, Augustin Dumay, Renaud Capuçon, Gérard Caussé, Jian Wang"
    REM DATE 1999
    REM REPLAYGAIN_TRACK_GAIN 2.25 dB
    REM REPLAYGAIN_TRACK_PEAK 0.840271
    INDEX 01 00:00:00
    FILE "06 - Klavierquintett Es-dur, Op. 44 - III. Scherzo. Molto vivace.flac" WAVE
    TRACK 06 AUDIO
    TITLE "Klavierquintett Es-dur, Op. 44: III. Scherzo: Molto vivace"
    PERFORMER "Maria João Pires, Augustin Dumay, Renaud Capuçon, Gérard Caussé, Jian Wang"
    REM DATE 1999
    REM REPLAYGAIN_TRACK_GAIN -1.02 dB
    REM REPLAYGAIN_TRACK_PEAK 0.843872
    INDEX 01 00:00:00
    FILE "07 - Klavierquintett Es-dur, Op. 44 - IV. Allegro, ma non troppo.flac" WAVE
    TRACK 07 AUDIO
    TITLE "Klavierquintett Es-dur, Op. 44: IV. Allegro, ma non troppo"
    PERFORMER "Maria João Pires, Augustin Dumay, Renaud Capuçon, Gérard Caussé, Jian Wang"
    REM DATE 1999
    REM REPLAYGAIN_TRACK_GAIN -2.66 dB
    REM REPLAYGAIN_TRACK_PEAK 0.925507
    INDEX 01 00:00:00
    -
    Robert Schumann — каталог раздач на rutracker.orgВсе мои раздачи / All my releases
    [teatrix.ru].t18078.torrent 
    Торрент: Зарегистрирован [ 2016-03-17 00:44 ] · 468BF238661F8C3DE365D1FD76EA9BFE21CE4D4D

    Скачать .torrent

    Скачать

    21 KB

    Статус: проверено
    Скачан: 0 раз
    Размер: 237 MB
    terms.php



  • Быстрый ответ

    Имя:

          
    Для отправки сообщений необходимо включить JavaScript
    Показать сообщения:    

    Текущее время: 05-Дек 05:29

    Часовой пояс: UTC + 3


    Вы можете начинать темы
    Вы можете отвечать на сообщения
    Вы не можете редактировать свои сообщения
    Вы не можете удалять свои сообщения
    Вы не можете голосовать в опросах
    Вы не можете прикреплять файлы к сообщениям
    Вы можете скачивать файлы