(Baroque) Ensemble Lanterly - Luneburg 1647, Sacred Concertos (Ghizzolo Weber Werner Merula Monteverdi) - 1995, FLAC (image+.cue) lossless


 

[Цитировать]

Lüneburg 1647: Das "Weckmann-Manuskript" der Lüneburger Ratsbücherei
Жанр: Baroque
Страна-производитель диска: Germany
Год издания диска: 1995
Издатель (лейбл): MDG "Scene"
Номер по каталогу: 605 0647-2
Дата записи: 1995
Аудиокодек: FLAC
Тип рипа: image+.cue
Битрейт аудио: lossless
Продолжительность: 59:03
Источник: скачано с avaxhome
Наличие сканов в содержимом раздачи: да
Треклист:
01 Giovanni Ghizzolo (D.C. 1625) - Paratum Cor Meum Deus 3:02
02 Giorgio Weber (C. 1610 - After 1651) - Herr, Nun Lässest Du Deinen Diener In Frieden Fahren 4:58
03 Claudio Monteverdi (1567 - 1643) - Exulta Filia Sion 5:08
04 Christoph Werner (C. 1619 - 1650) - Was Betrübst Du Dich, Meine Seele? 3:41
05 Claudio Monteverdi - Laudate Dominum 4:27
06 Christoph Werner - O Du Allersüßester Und Freundlichster Herr Jesu 6:10
07 Claudio Monteverdi - Pianto Della Madonna: Lam Moriar Mi Fili 10:00
08 Tarquinio Merula (D. After 1652) - Nigra Sum 3:46
09 Christoph Werner - Herr, Nun Lässest Du Deinen Diener In Frieden Fahren 3:30
10 Christoph Werner - Exore Infantium 2:54
11 Christoph Werner - Circumdederunt 5:16
12 Christoph Werner - Exulta Filia 6:08
Исполнители:
Ensemble Lanterly -
Mona Spägele, soprano
Werner Buchin, altus
Albrecht Pöhl, bass

Лог создания рипа

Exact Audio Copy V1.0 beta 3 from 29. August 2011
EAC extraction logfile from 21. May 2013, 19:47
Ensemble Lenterley / Lüneburg 1647 - Sacred Concertos
Used drive : PIONEER BD-RW BDR-206 Adapter: 0 ID: 2
Read mode : Secure
Utilize accurate stream : Yes
Defeat audio cache : Yes
Make use of C2 pointers : No
Read offset correction : 667
Overread into Lead-In and Lead-Out : No
Fill up missing offset samples with silence : Yes
Delete leading and trailing silent blocks : No
Null samples used in CRC calculations : Yes
Used interface : Native Win32 interface for Win NT & 2000
Used output format : User Defined Encoder
Selected bitrate : 1024 kBit/s
Quality : High
Add ID3 tag : Yes
Command line compressor : C:\Program Files\FLAC\flac.exe
Additional command line options : -5 -T "Artist=%artist%" -T "Title=%title%" -T "Album=%albumtitle%" -T "Date=%year%" -T "Tracknumber=%tracknr%" -T "Genre=%genre%" %source% -o %dest%
TOC of the extracted CD
Track | Start | Length | Start sector | End sector
---------------------------------------------------------
1 | 0:00.32 | 3:02.63 | 32 | 13744
2 | 3:03.20 | 4:58.62 | 13745 | 36156
3 | 8:02.07 | 5:08.00 | 36157 | 59256
4 | 13:10.07 | 3:41.13 | 59257 | 75844
5 | 16:51.20 | 4:27.12 | 75845 | 95881
6 | 21:18.32 | 6:10.13 | 95882 | 123644
7 | 27:28.45 | 10:00.50 | 123645 | 168694
8 | 37:29.20 | 3:46.25 | 168695 | 185669
9 | 41:15.45 | 3:30.50 | 185670 | 201469
10 | 44:46.20 | 2:54.12 | 201470 | 214531
11 | 47:40.32 | 5:16.25 | 214532 | 238256
12 | 52:56.57 | 6:06.25 | 238257 | 265731
Range status and errors
Selected range
Filename F:\=== VINYL RIPS ===\=== EAC===\X FRESH RIP\Ensemble Lenterley - Lüneburg 1647 - Sacred Concertos.wav
Peak level 97.7 %
Extraction speed 7.3 X
Range quality 99.9 %
Test CRC B0A8DECB
Copy CRC B0A8DECB
Copy OK
No errors occurred
AccurateRip summary
Track 1 accurately ripped (confidence 1) [40B7813C] (AR v2)
Track 2 accurately ripped (confidence 1) [43580530] (AR v2)
Track 3 accurately ripped (confidence 1) [825559A6] (AR v2)
Track 4 accurately ripped (confidence 1) [A6CAF20C] (AR v2)
Track 5 accurately ripped (confidence 1) [A6FE443C] (AR v2)
Track 6 accurately ripped (confidence 1) [826C7FCA] (AR v2)
Track 7 accurately ripped (confidence 1) [F46BBF67] (AR v2)
Track 8 accurately ripped (confidence 1) [F4E81D44] (AR v2)
Track 9 accurately ripped (confidence 1) [B3AADD24] (AR v2)
Track 10 accurately ripped (confidence 1) [66F54B94] (AR v2)
Track 11 accurately ripped (confidence 1) [08DF853A] (AR v2)
Track 12 accurately ripped (confidence 1) [0552C7AD] (AR v2)
All tracks accurately ripped
End of status report
---- CUETools DB Plugin V2.1.3
[CTDB TOCID: bQIFVgU8j2inWHzrOBi6d3wbG.A-] disk not present in database, Submit result: database access error: Timeout für Vorgang überschritten
==== Log checksum 0F2587DC24296733AB4FB62A89569EAEE777AEB02EE462F25F07791C6230C968 ====

Лог проверки качества

AUDIOCHECKER v2.0 beta (build 457) - by Dester - opdester@freemail.hu
~~~~~~~~~~~~~~~~~~~~~~~~~~~~~~~~~~
-=== DO NOT EDIT THIS FILE! ===-
Path: ...\Ensemble Lanterly - Lueneburg 1647 - Sacred Concertos {1995}
1 -=- Ensemble Lanterly - Lueneburg 1647 - Sacred Concertos.flac -=- CDDA (100%)
35671428



Показать сообщения:    

Текущее время: 05-Дек 05:31

Часовой пояс: UTC + 3


Вы не можете начинать темы
Вы не можете отвечать на сообщения
Вы не можете редактировать свои сообщения
Вы не можете удалять свои сообщения
Вы не можете голосовать в опросах
Вы не можете прикреплять файлы к сообщениям
Вы не можете скачивать файлы