(Classical, sacred) Michel Corrette - Noel 1788: Messe pour le temps de Noel; Nouveau Livre de Noels - Ensemble ...in Ore mel..., Olivier Vernet - 2CD - 2007, FLAC (image+.cue) lossless


 

[Цитировать]

Michel Corrette - Noel 1788: Messe pour le temps de Noël; Nouveau Livre de Noëls - Ensemble ...in Ore mel..., Olivier Vernet
Жанр: Classical, sacred
Страна-производитель диска: France
Год издания диска: 2007
Издатель (лейбл): Ligia Digital
Номер по каталогу: Lidi 0104187-07
Дата записи: 2007
Аудиокодек: FLAC
Тип рипа: image+.cue
Битрейт аудио: lossless
Продолжительность: 98:22
Источник: собственный рип
Наличие сканов в содержимом раздачи: да
Треклист:
Michel Corrette (1707-1795)
Nouveau Livre de Noëls (1741) - Messe pour le temps de Noël (1788)
CD1
[1] Nouveau livre de Noëls (1741) - Suite IV - Ou s'en vont ces gays Bergers
[2] Messe pour le temps de Noël (1788) - Kyrie - Christe - Kyrie
[3] Messe pour le temps de Noël (1788) - Gloria
[4] Nouveau livre de Noëls (1741) - Suite III - Offertoire: Noël Suisse
[5] Messe pour le temps de Noël (1788) - Sanctus - Benedictus
[6] Nouveau livre de Noëls (1741) - Suite IV - Elevation: A minuit fut fait un reveil
[7] Messe pour le temps de Noël (1788) - Agnus Dei
[8] Nouveau livre de Noëls (1741) - Suite IV - Communion: Quoy ma voisine est tu fachee
[9] Messe pour le temps de Noël (1788) - Domine Salvum
[10] Carillon en fa majeur
CD2
[1]-[4] Nouveau livre de Noëls (1741) - Suite I in D minor
[5]-[8] Nouveau livre de Noëls (1741) - Suite II in G major
[9]-[11] Nouveau livre de Noëls (1741) - Suite III in A minor
[12]-[15] Nouveau livre de Noëls (1741) - Suite IV in C major
Исполнители:
Ensemble ...in Ore mel...
Guillemette Laurens mezzo-soprano
Anne Magouët soprano
Olivier Vernet organ

Лог создания рипа: CD1

Exact Audio Copy V1.0 beta 3 from 29. August 2011
EAC extraction logfile from 27. November 2013, 0:45
Olivier Vernet, Ensemble ...in Ore mel... / Michel Corrette - Noël 1788 - CD1
Used drive : HL-DT-STDVDRAM GSA-4083N Adapter: 1 ID: 0
Read mode : Secure
Utilize accurate stream : Yes
Defeat audio cache : Yes
Make use of C2 pointers : No
Read offset correction : 667
Overread into Lead-In and Lead-Out : No
Fill up missing offset samples with silence : Yes
Delete leading and trailing silent blocks : No
Null samples used in CRC calculations : Yes
Used interface : Native Win32 interface for Win NT & 2000
Used output format : User Defined Encoder
Selected bitrate : 896 kBit/s
Quality : High
Add ID3 tag : No
Command line compressor : C:\Program Files\Exact Audio Copy\Flac\flac.exe
Additional command line options : -V -8 %source%
TOC of the extracted CD
Track | Start | Length | Start sector | End sector
---------------------------------------------------------
1 | 0:00.00 | 7:08.53 | 0 | 32152
2 | 7:08.53 | 5:23.56 | 32153 | 56433
3 | 12:32.34 | 10:18.42 | 56434 | 102825
4 | 22:51.01 | 7:49.59 | 102826 | 138059
5 | 30:40.60 | 2:23.74 | 138060 | 148858
6 | 33:04.59 | 3:20.16 | 148859 | 163874
7 | 36:25.00 | 2:01.00 | 163875 | 172949
8 | 38:26.00 | 2:52.15 | 172950 | 185864
9 | 41:18.15 | 3:15.45 | 185865 | 200534
10 | 44:33.60 | 2:44.39 | 200535 | 212873
Range status and errors
Selected range
Filename J:\New Music\Corrette - Noel 1788\Corrette - Noel 1788 - CD1.wav
Peak level 100.0 %
Extraction speed 2.6 X
Range quality 100.0 %
Test CRC 5052A9D5
Copy CRC 5052A9D5
Copy OK
No errors occurred
AccurateRip summary
Track 1 accurately ripped (confidence 1) [641CA7AA] (AR v2)
Track 2 accurately ripped (confidence 1) [407397B4] (AR v2)
Track 3 accurately ripped (confidence 1) [7234EC7A] (AR v2)
Track 4 accurately ripped (confidence 1) [E7DBA9A5] (AR v2)
Track 5 accurately ripped (confidence 1) [2B7342FA] (AR v2)
Track 6 accurately ripped (confidence 1) [24937FAE] (AR v2)
Track 7 accurately ripped (confidence 1) [FA3809CB] (AR v2)
Track 8 accurately ripped (confidence 1) [103659B8] (AR v2)
Track 9 accurately ripped (confidence 1) [0B961724] (AR v2)
Track 10 accurately ripped (confidence 1) [09B6F31A] (AR v2)
All tracks accurately ripped
End of status report
==== Log checksum CE4546D406ACD16C2A33BAA6331AFE5E656C1DF2E1D1FF52DF2E84813ACB0AEE ====

Лог создания рипа: CD2

Exact Audio Copy V1.0 beta 3 from 29. August 2011
EAC extraction logfile from 27. November 2013, 1:32
Olivier Vernet / Michel Corrette - Noel 1788 - CD2
Used drive : HL-DT-STDVDRAM GSA-4083N Adapter: 1 ID: 0
Read mode : Secure
Utilize accurate stream : Yes
Defeat audio cache : Yes
Make use of C2 pointers : No
Read offset correction : 667
Overread into Lead-In and Lead-Out : No
Fill up missing offset samples with silence : Yes
Delete leading and trailing silent blocks : No
Null samples used in CRC calculations : Yes
Used interface : Native Win32 interface for Win NT & 2000
Used output format : User Defined Encoder
Selected bitrate : 896 kBit/s
Quality : High
Add ID3 tag : No
Command line compressor : C:\Program Files\Exact Audio Copy\Flac\flac.exe
Additional command line options : -V -8 %source%
TOC of the extracted CD
Track | Start | Length | Start sector | End sector
---------------------------------------------------------
1 | 0:00.00 | 3:16.29 | 0 | 14728
2 | 3:16.29 | 3:14.46 | 14729 | 29324
3 | 6:31.00 | 5:53.00 | 29325 | 55799
4 | 12:24.00 | 1:50.00 | 55800 | 64049
5 | 14:14.00 | 5:02.45 | 64050 | 86744
6 | 19:16.45 | 5:04.60 | 86745 | 109604
7 | 24:21.30 | 2:38.01 | 109605 | 121455
8 | 26:59.31 | 3:15.74 | 121456 | 136154
9 | 30:15.30 | 3:23.15 | 136155 | 151394
10 | 33:38.45 | 3:46.45 | 151395 | 168389
11 | 37:25.15 | 3:47.30 | 168390 | 185444
12 | 41:12.45 | 3:02.60 | 185445 | 199154
13 | 44:15.30 | 2:40.00 | 199155 | 211154
14 | 46:55.30 | 1:47.00 | 211155 | 219179
15 | 48:42.30 | 2:30.40 | 219180 | 230469
Range status and errors
Selected range
Filename J:\New Music\Corrette - Noel 1788\Corrette - Noel 1788 - CD2.wav
Peak level 99.9 %
Extraction speed 2.7 X
Range quality 100.0 %
Test CRC 94CE32F1
Copy CRC 94CE32F1
Copy OK
No errors occurred
AccurateRip summary
Track 1 accurately ripped (confidence 1) [0BD874F0] (AR v2)
Track 2 accurately ripped (confidence 1) [3861E027] (AR v2)
Track 3 accurately ripped (confidence 1) [2F973133] (AR v2)
Track 4 accurately ripped (confidence 1) [F8F04CBE] (AR v2)
Track 5 accurately ripped (confidence 1) [9C1C5EDE] (AR v2)
Track 6 accurately ripped (confidence 1) [548136B6] (AR v2)
Track 7 accurately ripped (confidence 1) [E9E6D172] (AR v2)
Track 8 accurately ripped (confidence 1) [BD3E150A] (AR v2)
Track 9 accurately ripped (confidence 1) [49D80E87] (AR v2)
Track 10 accurately ripped (confidence 1) [000CA84C] (AR v2)
Track 11 accurately ripped (confidence 1) [81F293F9] (AR v2)
Track 12 accurately ripped (confidence 1) [AF4A0B63] (AR v2)
Track 13 accurately ripped (confidence 1) [F8023B56] (AR v2)
Track 14 accurately ripped (confidence 1) [A002041C] (AR v2)
Track 15 accurately ripped (confidence 1) [BBA705FD] (AR v2)
All tracks accurately ripped
End of status report
==== Log checksum 233BE15471E6F048B1AC1431E4589BE96D0C3E958F63B88D5304868D573B99FC ====



Показать сообщения:    

Текущее время: 10-Дек 11:52

Часовой пояс: UTC + 3


Вы не можете начинать темы
Вы не можете отвечать на сообщения
Вы не можете редактировать свои сообщения
Вы не можете удалять свои сообщения
Вы не можете голосовать в опросах
Вы не можете прикреплять файлы к сообщениям
Вы не можете скачивать файлы