(Classical/Vocal) Teresa Berganza - The Spanish Soul (De Falla, Granados, Turina, Guridi, Villa-Lobos, Braga and Guastavino) - 2008, FLAC (image+.cue) lossless


 

[Цитировать]

Teresa Berganza - The Spanish Soul
Жанр: Classical/Vocal
Страна-производитель диска: EU
Год издания диска: 2008
Издатель (лейбл): Brilliant Classics
Номер по каталогу: 6990
Дата записи: 1983-1986
Аудиокодек: FLAC
Тип рипа: image+.cue
Битрейт аудио: lossless
Продолжительность: 47'20 + 64'32 + 57'13
Источник: собственный рип
Наличие сканов в содержимом раздачи: да
Треклист/Исполнители:
Manuel de Falla (1876-1946) CD1:
El Corregidor y la molinera, pantomime-ballet in 2 scenes, G. 50:
1. 1st part
2. 2nd part
Chamber orchestra of Lausanne/Jesus Lopez-Cobos
Recorded December 1983, Salle Communale d'EpalingesPopular Spanish Songs (7), for voice & piano, G. 40:
3. 1. El pano moruno
4. 2. Sequidilla murciana
5. 3. Asturiana
6. 4. Jota
7. 5. Nana
8. 6. Canción
9. 7. Polo
Juan Antonio Alvarez Parejo, (piano)
Recorded October 1986, Church of Seon Switzerland
Enriqué Granados (1867-1916) CD2:
Tonadillas al estilo antiguo, songs (6) for voice & piano, H. 136
1. 1. La maja dolorosa I
2. 2. La maja dolorosa II
3. 3. La maja dolorosa III
4. 4. El majo tímido
5. 5. El majo discreto
6. 6. El tra la la y el punteado
Juan Antonio Alvarez Parejo, (piano)
Recorded October 1986, Church of Seon. SwitzerlandJoaquín Turina (1882-1949) CD2
7. Dedicatoria, for voice & piano, Op. 19/1
8. Nunca olvida, for voice & piano, Op. 19/2
9. Cantares, poema en forma de canciones for voice & piano (or orchestra), Op. 19/3
10. Los dos miedos, poema en forma de canciones, for voice & piano (or orchestra), Op. 19/4
11. Las locas por amor, for voice & piano, Op. 19/5
12. Saeta en forma de salve a la Virgen de la Esperanza, for voice & piano (or orchestra), Op. 60
13. El Fantasma, for voice & piano (Canto a Sevilla No. 5), Op. 37/5
14. La Farruca, song
Juan Antonio Alvarez Parejo, (piano)
Recorded October 1986, Church of Seon. SwitzerlandJesús Guridi (1886-1961) CD2:
Canzones Castellanas (6) for voice & piano
15. 1. Alla arriba, en aquella montaña
16. 2. Sereno
17. 3. Llamale con el pañuelo
18. 4. No quiero tus avellanas
19. 5. Como quieres que adivine
20. 6. Mañanita de San Juan
Juan Antonio Alvarez Parejo, (piano)
Recorded October 1986, Church of Seon. SwitzerlandEduardo Toldrá (1895-1962) CD2:
Canciones (6), for voice & piano, Nos 1-6, complete
21. 1. La zagale alegre
22. 2. Madre, unos ojuelos vi
23. 3. Mañanita de San Juan
24. 4. Nadie puede ser dichoso
25. 5. Cantarcillo
26. 6. Después que te conocí
Juan Antonio Alvarez Parejo, (piano)
Recorded October 1986, Church of Seon. SwitzerlandHeitor Villa-Lobos (1887-1959) CD3:
1. Viola quebada, song for voice & piano (Canções típicas brasileiras No. 6), A. 159/6
2. Adeus Ema, desafio for voice & piano (Canções típicas brailieras No. 7), A. 159/7
3. Canção do poeta do século XVIII, for voice & piano, A. 486
4. Samba clássico, song for voice & piano ("Ode"), A. 498
5. Desejo, song for voice & piano (Serestas No. 10), A. 216/10
6. Xangô, song for voice & piano (Canções típicas brasileiras No. 4), A. 159/4
Juan Antonio Alvarez Parejo, (piano)
Recorded October 1983, Church of Seon. SwitzerlandFrancisco Ernani Braga (1868-1945) CD3 :
7. O'Kinimbá, for voice & piano (Canción de Makumba)
8. Capim di Pranta, for voice & piano (Canción Jongo)
9. Nigue-Nigue-Ninhas, for voice & piano (Canción de cuna afro-brasileña)
10. São João-Dã-Ra-Rão, for voice & piano (Canción de ronda infantil, Piani)
11. Engenho novo, for voice & piano (Canción de trabajo, Rio Grande do Norte)
12. A casinha pequenina, for voice & piano (Canción amorosa)
Juan Antonio Alvarez Parejo, (piano)
Recorded October 1983, Church of Seon. SwitzerlandCarlos Guastavino (b.1912) CD3:
13. Milonga de dos Hermanos, for voice & piano
14. Hermano (Canción del Sur), for voice & piano
15. Mi viña de Chapanay, for voice & piano
16. La Rosa y el sauce, for voice & piano
17. Pampamapa (Aire de Huella), for voice & piano
18. Se equivocó la paloma, for voice & piano
19. Abismo de sed, for voice & piano (Zamba)
20. Bonita rama de sauce, song for voice & piano
21. El Sampedrino, for voice & piano (Canción Pampeana)
Juan Antonio Alvarez Parejo, (piano)
Recorded October 1983, Church of Seon. Switzerland

Лог создания рипа

CD1

Exact Audio Copy V1.0 beta 3 from 29. August 2011
EAC extraction logfile from 8. January 2014, 23:03
Teresa Berganza / The Spanish Soul CD1
Used drive : TSSTcorpCDDVDW SH-216AB Adapter: 0 ID: 2
Read mode : Secure
Utilize accurate stream : Yes
Defeat audio cache : Yes
Make use of C2 pointers : No
Read offset correction : 6
Overread into Lead-In and Lead-Out : No
Fill up missing offset samples with silence : Yes
Delete leading and trailing silent blocks : No
Null samples used in CRC calculations : Yes
Used interface : Native Win32 interface for Win NT & 2000
Used output format : User Defined Encoder
Selected bitrate : 896 kBit/s
Quality : High
Add ID3 tag : Yes
Command line compressor : C:\Program Files (x86)\Exact Audio Copy\FLAC\FLAC.EXE
Additional command line options : -6 -V -T "ARTIST=%artist%" -T "TITLE=%title%" -T "ALBUM=%albumtitle%" -T "DATE=%year%" -T "TRACKNUMBER=%tracknr%" -T "GENRE=%genre%" -T "COMMENT=%comment%" -T "BAND=%albuminterpret%" -T "ALBUMARTIST=%albuminterpret%" -T "COMPOSER=%composer%" %haslyrics%--tag-from-file=LYRICS="%lyricsfile%"%haslyrics% -T "DISCNUMBER=%cdnumber%" -T "TOTALDISCS=%totalcds%" -T "TOTALTRACKS=%numtracks%" %hascover%--picture="%coverfile%"%hascover% %source% -o %dest%
TOC of the extracted CD
Track | Start | Length | Start sector | End sector
---------------------------------------------------------
1 | 0:00.00 | 12:54.30 | 0 | 58079
2 | 12:54.30 | 22:53.33 | 58080 | 161087
3 | 35:47.63 | 1:10.00 | 161088 | 166337
4 | 36:57.63 | 1:22.02 | 166338 | 172489
5 | 38:19.65 | 2:35.70 | 172490 | 184184
6 | 40:55.60 | 2:50.00 | 184185 | 196934
7 | 43:45.60 | 1:34.73 | 196935 | 204057
8 | 45:20.58 | 1:07.15 | 204058 | 209097
9 | 46:27.73 | 1:33.70 | 209098 | 216142
Range status and errors
Selected range
Filename E:\Foobar-EAC\Teresa Berganza - The Spanish Soul CD1.wav
Peak level 90.0 %
Extraction speed 2.9 X
Range quality 100.0 %
Test CRC E0D8CEC2
Copy CRC E0D8CEC2
Copy OK
No errors occurred
AccurateRip summary
Track 1 accurately ripped (confidence 6) [E28A8F66] (AR v2)
Track 2 accurately ripped (confidence 7) [EF9A3EBC] (AR v2)
Track 3 accurately ripped (confidence 7) [44ACBFA5] (AR v2)
Track 4 accurately ripped (confidence 7) [8D2E7A70] (AR v2)
Track 5 accurately ripped (confidence 7) [15BC0306] (AR v2)
Track 6 accurately ripped (confidence 7) [764FEEE2] (AR v2)
Track 7 accurately ripped (confidence 7) [3712A406] (AR v2)
Track 8 accurately ripped (confidence 7) [2449E65A] (AR v2)
Track 9 accurately ripped (confidence 7) [1A325A8F] (AR v2)
All tracks accurately ripped
End of status report
---- CUETools DB Plugin V2.1.3
[CTDB TOCID: 2NLgTLWaVlpMR5ubniMl0hfqU.I-] found, Submit result: database access error: ExpectationFailed
[4896904b] (4/4) Accurately ripped
==== Log checksum 2F7C172D46B0C4686360254A59AE9D38AC73821FCF9CBCEEAB4E321130580CD5 ====

CD2

Exact Audio Copy V1.0 beta 3 from 29. August 2011
EAC extraction logfile from 8. January 2014, 23:36
Teresa Berganza / The Spanish Soul CD2
Used drive : TSSTcorpCDDVDW SE-208AB Adapter: 1 ID: 0
Read mode : Secure
Utilize accurate stream : Yes
Defeat audio cache : Yes
Make use of C2 pointers : No
Read offset correction : 6
Overread into Lead-In and Lead-Out : No
Fill up missing offset samples with silence : Yes
Delete leading and trailing silent blocks : No
Null samples used in CRC calculations : Yes
Used interface : Native Win32 interface for Win NT & 2000
Used output format : User Defined Encoder
Selected bitrate : 896 kBit/s
Quality : High
Add ID3 tag : Yes
Command line compressor : C:\Program Files (x86)\Exact Audio Copy\FLAC\FLAC.EXE
Additional command line options : -6 -V -T "ARTIST=%artist%" -T "TITLE=%title%" -T "ALBUM=%albumtitle%" -T "DATE=%year%" -T "TRACKNUMBER=%tracknr%" -T "GENRE=%genre%" -T "COMMENT=%comment%" -T "BAND=%albuminterpret%" -T "ALBUMARTIST=%albuminterpret%" -T "COMPOSER=%composer%" %haslyrics%--tag-from-file=LYRICS="%lyricsfile%"%haslyrics% -T "DISCNUMBER=%cdnumber%" -T "TOTALDISCS=%totalcds%" -T "TOTALTRACKS=%numtracks%" %hascover%--picture="%coverfile%"%hascover% %source% -o %dest%
TOC of the extracted CD
Track | Start | Length | Start sector | End sector
---------------------------------------------------------
1 | 0:00.00 | 3:11.60 | 0 | 14384
2 | 3:11.60 | 2:23.00 | 14385 | 25109
3 | 5:34.60 | 3:14.03 | 25110 | 39662
4 | 8:48.63 | 0:56.70 | 39663 | 43932
5 | 9:45.58 | 1:28.05 | 43933 | 50537
6 | 11:13.63 | 1:19.70 | 50538 | 56532
7 | 12:33.58 | 3:14.02 | 56533 | 71084
8 | 15:47.60 | 2:13.73 | 71085 | 81132
9 | 18:01.58 | 1:52.67 | 81133 | 89599
10 | 19:54.50 | 2:47.00 | 89600 | 102124
11 | 22:41.50 | 1:31.00 | 102125 | 108949
12 | 24:12.50 | 3:05.08 | 108950 | 122832
13 | 27:17.58 | 3:30.02 | 122833 | 138584
14 | 30:47.60 | 2:44.70 | 138585 | 150954
15 | 33:32.55 | 2:21.08 | 150955 | 161537
16 | 35:53.63 | 2:36.70 | 161538 | 173307
17 | 38:30.58 | 2:06.55 | 173308 | 182812
18 | 40:37.38 | 3:18.20 | 182813 | 197682
19 | 43:55.58 | 2:31.07 | 197683 | 209014
20 | 46:26.65 | 3:33.70 | 209015 | 225059
21 | 50:00.60 | 2:54.08 | 225060 | 238117
22 | 52:54.68 | 2:44.67 | 238118 | 250484
23 | 55:39.60 | 2:27.25 | 250485 | 261534
24 | 58:07.10 | 1:59.50 | 261535 | 270509
25 | 60:06.60 | 3:16.73 | 270510 | 285282
26 | 63:23.58 | 3:09.40 | 285283 | 299497
Range status and errors
Selected range
Filename E:\Foobar-EAC\Teresa Berganza - The Spanish Soul CD2.wav
Peak level 90.0 %
Extraction speed 2.0 X
Range quality 99.9 %
Test CRC 6C9E5B5A
Copy CRC 6C9E5B5A
Copy OK
No errors occurred
AccurateRip summary
Track 1 accurately ripped (confidence 7) [452A451B] (AR v2)
Track 2 accurately ripped (confidence 7) [588A7785] (AR v2)
Track 3 accurately ripped (confidence 7) [CE2E8218] (AR v2)
Track 4 accurately ripped (confidence 7) [5A8BF9AA] (AR v2)
Track 5 accurately ripped (confidence 7) [78E1FDC0] (AR v2)
Track 6 accurately ripped (confidence 7) [3A06823A] (AR v2)
Track 7 accurately ripped (confidence 7) [D01A9CC7] (AR v2)
Track 8 accurately ripped (confidence 7) [44D20F5E] (AR v2)
Track 9 accurately ripped (confidence 7) [91555DF9] (AR v2)
Track 10 accurately ripped (confidence 7) [C291614B] (AR v2)
Track 11 accurately ripped (confidence 7) [95BABD33] (AR v2)
Track 12 accurately ripped (confidence 7) [2F80FD09] (AR v2)
Track 13 accurately ripped (confidence 7) [37F09429] (AR v2)
Track 14 accurately ripped (confidence 6) [1721D9E4] (AR v2)
Track 15 accurately ripped (confidence 7) [3FA1E5E0] (AR v2)
Track 16 accurately ripped (confidence 7) [A8DF5E15] (AR v2)
Track 17 accurately ripped (confidence 7) [94645CC9] (AR v2)
Track 18 accurately ripped (confidence 7) [5C62598C] (AR v2)
Track 19 accurately ripped (confidence 7) [6AD1F8B2] (AR v2)
Track 20 accurately ripped (confidence 7) [721FB6DD] (AR v2)
Track 21 accurately ripped (confidence 7) [CEFF2C05] (AR v2)
Track 22 accurately ripped (confidence 7) [DB44A8A1] (AR v2)
Track 23 accurately ripped (confidence 7) [A2D74ECD] (AR v2)
Track 24 accurately ripped (confidence 7) [6C8AD42E] (AR v2)
Track 25 accurately ripped (confidence 7) [8D62A0DE] (AR v2)
Track 26 accurately ripped (confidence 7) [41B74E5A] (AR v2)
All tracks accurately ripped
End of status report
---- CUETools DB Plugin V2.1.3
[CTDB TOCID: 34IKRQ5z44kZgEWCwe5lIwpIce4-] found, Submit result: database access error: ExpectationFailed
[45d454f4] (3/3) Accurately ripped
==== Log checksum EDB4DEC5D39BD0A29736BD7391A6BCFDBB7ED316EE6EFB5F7D7C067DC41846F1 ====

CD3

Exact Audio Copy V1.0 beta 3 from 29. August 2011
EAC extraction logfile from 8. January 2014, 23:30
Teresa Berganza / The Spanish Soul CD3
Used drive : TSSTcorpCDDVDW SH-216AB Adapter: 0 ID: 2
Read mode : Secure
Utilize accurate stream : Yes
Defeat audio cache : Yes
Make use of C2 pointers : No
Read offset correction : 6
Overread into Lead-In and Lead-Out : No
Fill up missing offset samples with silence : Yes
Delete leading and trailing silent blocks : No
Null samples used in CRC calculations : Yes
Used interface : Native Win32 interface for Win NT & 2000
Used output format : User Defined Encoder
Selected bitrate : 896 kBit/s
Quality : High
Add ID3 tag : Yes
Command line compressor : C:\Program Files (x86)\Exact Audio Copy\FLAC\FLAC.EXE
Additional command line options : -6 -V -T "ARTIST=%artist%" -T "TITLE=%title%" -T "ALBUM=%albumtitle%" -T "DATE=%year%" -T "TRACKNUMBER=%tracknr%" -T "GENRE=%genre%" -T "COMMENT=%comment%" -T "BAND=%albuminterpret%" -T "ALBUMARTIST=%albuminterpret%" -T "COMPOSER=%composer%" %haslyrics%--tag-from-file=LYRICS="%lyricsfile%"%haslyrics% -T "DISCNUMBER=%cdnumber%" -T "TOTALDISCS=%totalcds%" -T "TOTALTRACKS=%numtracks%" %hascover%--picture="%coverfile%"%hascover% %source% -o %dest%
TOC of the extracted CD
Track | Start | Length | Start sector | End sector
---------------------------------------------------------
1 | 0:00.00 | 5:02.70 | 0 | 22719
2 | 5:02.70 | 1:54.73 | 22720 | 31342
3 | 6:57.68 | 1:36.70 | 31343 | 38612
4 | 8:34.63 | 3:52.05 | 38613 | 56017
5 | 12:26.68 | 0:44.72 | 56018 | 59389
6 | 13:11.65 | 1:18.00 | 59390 | 65239
7 | 14:29.65 | 2:11.05 | 65240 | 75069
8 | 16:40.70 | 2:11.00 | 75070 | 84894
9 | 18:51.70 | 2:14.05 | 84895 | 94949
10 | 21:06.00 | 3:08.68 | 94950 | 109117
11 | 24:14.68 | 1:40.70 | 109118 | 116687
12 | 25:55.63 | 3:00.02 | 116688 | 130189
13 | 28:55.65 | 2:43.00 | 130190 | 142414
14 | 31:38.65 | 3:40.00 | 142415 | 158914
15 | 35:18.65 | 2:52.05 | 158915 | 171819
16 | 38:10.70 | 2:39.70 | 171820 | 183814
17 | 40:50.65 | 3:55.05 | 183815 | 201444
18 | 44:45.70 | 2:31.03 | 201445 | 212772
19 | 47:16.73 | 3:26.67 | 212773 | 228289
20 | 50:43.65 | 2:43.03 | 228290 | 240517
21 | 53:26.68 | 3:46.12 | 240518 | 257479
Range status and errors
Selected range
Filename E:\Foobar-EAC\Teresa Berganza - The Spanish Soul CD3.wav
Peak level 87.4 %
Extraction speed 7.6 X
Range quality 100.0 %
Test CRC 1C0ACAE5
Copy CRC 1C0ACAE5
Copy OK
No errors occurred
AccurateRip summary
Track 1 accurately ripped (confidence 6) [527EBE7B] (AR v2)
Track 2 accurately ripped (confidence 6) [F8B9C043] (AR v2)
Track 3 accurately ripped (confidence 6) [65471F65] (AR v2)
Track 4 accurately ripped (confidence 6) [45AF56D7] (AR v2)
Track 5 accurately ripped (confidence 6) [68D9084C] (AR v2)
Track 6 accurately ripped (confidence 6) [6DFC46D2] (AR v2)
Track 7 accurately ripped (confidence 6) [2287967D] (AR v2)
Track 8 accurately ripped (confidence 6) [53C46F7D] (AR v2)
Track 9 accurately ripped (confidence 6) [5247030E] (AR v2)
Track 10 accurately ripped (confidence 6) [5CF5E4C2] (AR v2)
Track 11 accurately ripped (confidence 6) [18C61A6C] (AR v2)
Track 12 accurately ripped (confidence 6) [1A808A66] (AR v2)
Track 13 accurately ripped (confidence 6) [02569A13] (AR v2)
Track 14 accurately ripped (confidence 6) [F01C7142] (AR v2)
Track 15 accurately ripped (confidence 6) [D6D5D4F7] (AR v2)
Track 16 accurately ripped (confidence 6) [EC2767A9] (AR v2)
Track 17 accurately ripped (confidence 6) [2406E7C2] (AR v2)
Track 18 accurately ripped (confidence 6) [FADBFE68] (AR v2)
Track 19 accurately ripped (confidence 6) [C8FA8896] (AR v2)
Track 20 accurately ripped (confidence 6) [19D4CA84] (AR v2)
Track 21 accurately ripped (confidence 6) [CD15B569] (AR v2)
All tracks accurately ripped
End of status report
---- CUETools DB Plugin V2.1.3
[CTDB TOCID: ppaWB_x.EU5ADSdmh4bCgkC7uZA-] found, Submit result: database access error: ExpectationFailed
[7b7328cf] (9/9) Accurately ripped
==== Log checksum BEC0CAAC37F5C5153F0256B5B7D30D9FA678627403752A9122D6364D158C96BF ====

Содержание индексной карты (.CUE)

CD1

REM GENRE Vocal
REM DATE 1983
REM DISCID 840B4109
REM COMMENT "ExactAudioCopy v1.0b3"
PERFORMER "Teresa Berganza"
TITLE "The Spanish Soul CD1"
FILE "Teresa Berganza - The Spanish Soul CD1.flac" WAVE
TRACK 01 AUDIO
TITLE "El Corregidor y la molinera 1st part"
PERFORMER "Teresa Berganza"
INDEX 01 00:00:00
TRACK 02 AUDIO
TITLE "El Corregidor y la molinera 2nd part"
PERFORMER "Teresa Berganza"
INDEX 00 12:47:00
INDEX 01 12:54:30
TRACK 03 AUDIO
TITLE "El pano moruno"
PERFORMER "Teresa Berganza"
INDEX 00 35:39:43
INDEX 01 35:47:63
TRACK 04 AUDIO
TITLE "Sequidilla murciana"
PERFORMER "Teresa Berganza"
INDEX 00 36:54:30
INDEX 01 36:57:63
TRACK 05 AUDIO
TITLE "Asturiana"
PERFORMER "Teresa Berganza"
INDEX 00 38:16:00
INDEX 01 38:19:65
TRACK 06 AUDIO
TITLE "Jota"
PERFORMER "Teresa Berganza"
INDEX 00 40:52:68
INDEX 01 40:55:60
TRACK 07 AUDIO
TITLE "Nana"
PERFORMER "Teresa Berganza"
INDEX 00 43:41:58
INDEX 01 43:45:60
TRACK 08 AUDIO
TITLE "Canción"
PERFORMER "Teresa Berganza"
INDEX 00 45:18:38
INDEX 01 45:20:58
TRACK 09 AUDIO
TITLE "Polo"
PERFORMER "Teresa Berganza"
INDEX 00 46:27:23
INDEX 01 46:27:73

CD2

REM GENRE Vocal
REM DATE 1986
REM DISCID 850F991A
REM COMMENT "ExactAudioCopy v1.0b3"
PERFORMER "Teresa Berganza"
TITLE "The Spanish Soul CD2"
FILE "Teresa Berganza - The Spanish Soul CD2.flac" WAVE
TRACK 01 AUDIO
TITLE "La maja dolorosa I"
PERFORMER "Teresa Berganza"
INDEX 01 00:00:00
TRACK 02 AUDIO
TITLE "La maja dolorosa II"
PERFORMER "Teresa Berganza"
INDEX 00 03:09:08
INDEX 01 03:11:60
TRACK 03 AUDIO
TITLE "La maja dolorosa III"
PERFORMER "Teresa Berganza"
INDEX 00 05:29:38
INDEX 01 05:34:60
TRACK 04 AUDIO
TITLE "El majo tímido"
PERFORMER "Teresa Berganza"
INDEX 00 08:43:63
INDEX 01 08:48:63
TRACK 05 AUDIO
TITLE "El majo discreto"
PERFORMER "Teresa Berganza"
INDEX 00 09:43:23
INDEX 01 09:45:58
TRACK 06 AUDIO
TITLE "El tra la la y el punteado"
PERFORMER "Teresa Berganza"
INDEX 00 11:10:03
INDEX 01 11:13:63
TRACK 07 AUDIO
TITLE "Dedicatoria, for voice & piano"
PERFORMER "Teresa Berganza"
INDEX 00 12:23:08
INDEX 01 12:33:58
TRACK 08 AUDIO
TITLE "Nunca olvida, for voice & piano"
PERFORMER "Teresa Berganza"
INDEX 00 15:45:13
INDEX 01 15:47:60
TRACK 09 AUDIO
TITLE "Cantares, poema en forma de canciones for voice & piano"
PERFORMER "Teresa Berganza"
INDEX 00 17:59:13
INDEX 01 18:01:58
TRACK 10 AUDIO
TITLE "Los dos miedos, poema en forma de canciones, for voice & piano"
PERFORMER "Teresa Berganza"
INDEX 00 19:50:43
INDEX 01 19:54:50
TRACK 11 AUDIO
TITLE "Las locas por amor, for voice & piano"
PERFORMER "Teresa Berganza"
INDEX 00 22:40:13
INDEX 01 22:41:50
TRACK 12 AUDIO
TITLE "Saeta en forma de salve a la Virgen de la Esperanza, for voice & piano"
PERFORMER "Teresa Berganza"
INDEX 00 24:04:05
INDEX 01 24:12:50
TRACK 13 AUDIO
TITLE "El Fantasma, for voice & piano"
PERFORMER "Teresa Berganza"
INDEX 00 27:12:63
INDEX 01 27:17:58
TRACK 14 AUDIO
TITLE "La Farruca, song"
PERFORMER "Teresa Berganza"
INDEX 00 30:45:00
INDEX 01 30:47:60
TRACK 15 AUDIO
TITLE "Alla arriba, en aquella montaña"
PERFORMER "Teresa Berganza"
INDEX 00 33:21:70
INDEX 01 33:32:55
TRACK 16 AUDIO
TITLE "Sereno"
PERFORMER "Teresa Berganza"
INDEX 00 35:52:15
INDEX 01 35:53:63
TRACK 17 AUDIO
TITLE "Llamale con el pañuelo"
PERFORMER "Teresa Berganza"
INDEX 00 38:27:58
INDEX 01 38:30:58
TRACK 18 AUDIO
TITLE "No quiero tus avellanas"
PERFORMER "Teresa Berganza"
INDEX 00 40:34:03
INDEX 01 40:37:38
TRACK 19 AUDIO
TITLE "Como quieres que adivine"
PERFORMER "Teresa Berganza"
INDEX 00 43:51:08
INDEX 01 43:55:58
TRACK 20 AUDIO
TITLE "Mañanita de San Juan"
PERFORMER "Teresa Berganza"
INDEX 00 46:23:15
INDEX 01 46:26:65
TRACK 21 AUDIO
TITLE "La zagale alegre"
PERFORMER "Teresa Berganza"
INDEX 00 49:49:48
INDEX 01 50:00:60
TRACK 22 AUDIO
TITLE "Madre, unos ojuelos vi"
PERFORMER "Teresa Berganza"
INDEX 00 52:51:35
INDEX 01 52:54:68
TRACK 23 AUDIO
TITLE "Mañanita de San Juan"
PERFORMER "Teresa Berganza"
INDEX 00 55:35:73
INDEX 01 55:39:60
TRACK 24 AUDIO
TITLE "Nadie puede ser dichoso"
PERFORMER "Teresa Berganza"
INDEX 00 58:03:55
INDEX 01 58:07:10
TRACK 25 AUDIO
TITLE "Cantarcillo"
PERFORMER "Teresa Berganza"
INDEX 00 60:03:08
INDEX 01 60:06:60
TRACK 26 AUDIO
TITLE "Después que te conocí"
PERFORMER "Teresa Berganza"
INDEX 00 63:16:70
INDEX 01 63:23:58

CD3

REM GENRE Vocal
REM DISCID 1A0D6915
REM COMMENT "ExactAudioCopy v1.0b3"
PERFORMER "Teresa Berganza"
TITLE "The Spanish Soul CD3"
FILE "Teresa Berganza - The Spanish Soul CD3.flac" WAVE
TRACK 01 AUDIO
TITLE "Viola quebada, song for voice & piano"
PERFORMER "Teresa Berganza"
INDEX 01 00:00:00
TRACK 02 AUDIO
TITLE "Adeus Ema, desafio for voice & piano"
PERFORMER "Teresa Berganza"
INDEX 00 04:59:43
INDEX 01 05:02:70
TRACK 03 AUDIO
TITLE "Canção do poeta do século XVIII, for voice & piano"
PERFORMER "Teresa Berganza"
INDEX 00 06:54:70
INDEX 01 06:57:68
TRACK 04 AUDIO
TITLE "Samba clássico, song for voice & piano"
PERFORMER "Teresa Berganza"
INDEX 00 08:32:03
INDEX 01 08:34:63
TRACK 05 AUDIO
TITLE "Desejo, song for voice & piano"
PERFORMER "Teresa Berganza"
INDEX 00 12:24:08
INDEX 01 12:26:68
TRACK 06 AUDIO
TITLE "Xangô, song for voice & piano"
PERFORMER "Teresa Berganza"
INDEX 00 13:09:03
INDEX 01 13:11:65
TRACK 07 AUDIO
TITLE "O'Kinimbá, for voice & piano"
PERFORMER "Teresa Berganza"
INDEX 00 14:23:05
INDEX 01 14:29:65
TRACK 08 AUDIO
TITLE "Capim di Pranta, for voice & piano"
PERFORMER "Teresa Berganza"
INDEX 00 16:38:73
INDEX 01 16:40:70
TRACK 09 AUDIO
TITLE "Nigue-Nigue-Ninhas, for voice & piano"
PERFORMER "Teresa Berganza"
INDEX 00 18:49:25
INDEX 01 18:51:70
TRACK 10 AUDIO
TITLE "São João-Dã-Ra-Rão, for voice & piano"
PERFORMER "Teresa Berganza"
INDEX 00 21:02:45
INDEX 01 21:06:00
TRACK 11 AUDIO
TITLE "Engenho novo, for voice & piano"
PERFORMER "Teresa Berganza"
INDEX 00 24:12:25
INDEX 01 24:14:68
TRACK 12 AUDIO
TITLE "A casinha pequenina, for voice & piano"
PERFORMER "Teresa Berganza"
INDEX 00 25:52:25
INDEX 01 25:55:63
TRACK 13 AUDIO
TITLE "Milonga de dos Hermanos, for voice & piano"
PERFORMER "Teresa Berganza"
INDEX 00 28:49:23
INDEX 01 28:55:65
TRACK 14 AUDIO
TITLE "Hermano (Canción del Sur), for voice & piano"
PERFORMER "Teresa Berganza"
INDEX 00 31:36:28
INDEX 01 31:38:65
TRACK 15 AUDIO
TITLE "Mi viña de Chapanay, for voice & piano"
PERFORMER "Teresa Berganza"
INDEX 00 35:16:08
INDEX 01 35:18:65
TRACK 16 AUDIO
TITLE "La Rosa y el sauce, for voice & piano"
PERFORMER "Teresa Berganza"
INDEX 00 38:07:48
INDEX 01 38:10:70
TRACK 17 AUDIO
TITLE "Pampamapa (Aire de Huella), for voice & piano"
PERFORMER "Teresa Berganza"
INDEX 00 40:46:68
INDEX 01 40:50:65
TRACK 18 AUDIO
TITLE "Se equivocó la paloma, for voice & piano"
PERFORMER "Teresa Berganza"
INDEX 00 44:41:48
INDEX 01 44:45:70
TRACK 19 AUDIO
TITLE "Abismo de sed, for voice & piano"
PERFORMER "Teresa Berganza"
INDEX 00 47:13:05
INDEX 01 47:16:73
TRACK 20 AUDIO
TITLE "Bonita rama de sauce, song for voice & piano"
PERFORMER "Teresa Berganza"
INDEX 00 50:40:05
INDEX 01 50:43:65
TRACK 21 AUDIO
TITLE "El Sampedrino, for voice & piano"
PERFORMER "Teresa Berganza"
INDEX 00 53:23:35
INDEX 01 53:26:68



Показать сообщения:    

Текущее время: 07-Дек 23:19

Часовой пояс: UTC + 3


Вы не можете начинать темы
Вы не можете отвечать на сообщения
Вы не можете редактировать свои сообщения
Вы не можете удалять свои сообщения
Вы не можете голосовать в опросах
Вы не можете прикреплять файлы к сообщениям
Вы не можете скачивать файлы