(Classical Crossover, Easy Listening) Jan Mulder - Коллекция (4 альбома) (w/ London Symphony Orchestra), FLAC (image+.cue), lossless


 

[Цитировать]

- -Жанр: Classical Crossover | Производитель диска: EU / USA | Лейбл: Miller Music
Год издания: 2008-2014 | Аудио кодек: FLAC | Тип рипа: image+.cue | Битрейт аудио: lossless
Источник (релизер): Рипы оригинальных дисков из личной коллекции | Наличие сканов: 600dpi
--

2008. Coming to America

Жанр : Classical Crossover, Easy Listening
Год выпуска диска : 2008
Производитель диска : USA
Аудио кодек : FLAC
Тип рипа : image+.cue (Test & Copy)
Битрейт аудио : lossless
Продолжительность : 67:34
Лейбл : Miller Music
Каталожный номер : 8714253000725
Источник (релизер): Рип оригинального диска из личной коллекции
Сканы: прилагаются


01. Coming to America
01. Ocean of Dreams
02. Rondo marcando
03. Sailing to the Moon
04. Ballade
05. Air gracieux
06. Lamento
07. The Hero
08. Prayer for Peace
09. Nostalgia
11. Endless Dream
12. La grande marche
13. Choral melancholique
14. Prayer for Peace II
15. Russian Romance
16. Serenade of Love
17. Ballad of a Lost Love
18. Dance of Joy
-
Jan Mulder, рояль, композитор, аранжировщик и дирижер
Amsterdam Symphony Orchestra (2-10, 13, 14)
Московский симфонический оркестр (11, 12, 15-17)

-

Лог создания рипа

Exact Audio Copy V1.0 beta 3 from 29. August 2011
EAC extraction logfile from 29. January 2014, 16:50
Jan Mulder / Coming to America
Used drive : TSSTcorpCDDVDW TS-L633C Adapter: 2 ID: 0
Read mode : Secure
Utilize accurate stream : Yes
Defeat audio cache : Yes
Make use of C2 pointers : No
Read offset correction : 6
Overread into Lead-In and Lead-Out : No
Fill up missing offset samples with silence : Yes
Delete leading and trailing silent blocks : No
Null samples used in CRC calculations : Yes
Used interface : Native Win32 interface for Win NT & 2000
Used output format : Internal WAV Routines
Sample format : 44.100 Hz; 16 Bit; Stereo
TOC of the extracted CD
Track | Start | Length | Start sector | End sector
---------------------------------------------------------
1 | 0:00.00 | 1:26.33 | 0 | 6482
2 | 1:26.33 | 4:24.43 | 6483 | 26325
3 | 5:51.01 | 2:57.66 | 26326 | 39666
4 | 8:48.67 | 3:10.60 | 39667 | 53976
5 | 11:59.52 | 4:05.17 | 53977 | 72368
6 | 16:04.69 | 3:38.09 | 72369 | 88727
7 | 19:43.03 | 4:05.07 | 88728 | 107109
8 | 23:48.10 | 3:43.37 | 107110 | 123871
9 | 27:31.47 | 3:28.21 | 123872 | 139492
10 | 30:59.68 | 5:59.05 | 139493 | 166422
11 | 36:58.73 | 6:06.48 | 166423 | 193920
12 | 43:05.46 | 2:39.65 | 193921 | 205910
13 | 45:45.36 | 5:09.69 | 205911 | 229154
14 | 50:55.30 | 6:05.67 | 229155 | 256596
15 | 57:01.22 | 3:03.43 | 256597 | 270364
16 | 60:04.65 | 3:12.10 | 270365 | 284774
17 | 63:17.00 | 2:55.30 | 284775 | 297929
18 | 66:12.30 | 1:22.34 | 297930 | 304113
Range status and errors
Selected range
Filename D:\Jan Mulder (FLAC) [by italia57]\2008. Coming to America\Jan Mulder - Coming to America (8714253000725).wav
Peak level 95.9 %
Extraction speed 1.6 X
Range quality 100.0 %
Test CRC 9DF14173
Copy CRC 9DF14173
Copy OK
No errors occurred
AccurateRip summary
Track 1 not present in database
Track 2 not present in database
Track 3 not present in database
Track 4 not present in database
Track 5 not present in database
Track 6 not present in database
Track 7 not present in database
Track 8 not present in database
Track 9 not present in database
Track 10 not present in database
Track 11 not present in database
Track 12 not present in database
Track 13 not present in database
Track 14 not present in database
Track 15 not present in database
Track 16 not present in database
Track 17 not present in database
Track 18 not present in database
None of the tracks are present in the AccurateRip database
End of status report
---- CUETools DB Plugin V2.1.4
[CTDB TOCID: ezjAw0ctvLfBkfEuE9ciDb4Huow-] disk not present in database
Submit result: ezjAw0ctvLfBkfEuE9ciDb4Huow- has been uploaded
==== Log checksum A2CF502D71072578384748F0CF9ADE62432A59C5F266B5A751ABBC88EDD54685 ====

Содержание индексной карты (.CUE)

REM GENRE Classical
REM DATE 2008
REM DISCID 080FD612
REM COMMENT "ExactAudioCopy v1.0b3"
PERFORMER "Jan Mulder"
TITLE "Coming to America"
FILE "Jan Mulder - Coming to America (8714253000725).wav" WAVE
TRACK 01 AUDIO
TITLE "Coming to America"
PERFORMER "Jan Mulder"
INDEX 01 00:00:00
TRACK 02 AUDIO
TITLE "Ocean of Dreams"
PERFORMER "Jan Mulder"
INDEX 00 01:22:72
INDEX 01 01:26:33
TRACK 03 AUDIO
TITLE "Rondo marcando"
PERFORMER "Jan Mulder"
INDEX 00 05:48:05
INDEX 01 05:51:01
TRACK 04 AUDIO
TITLE "Sailing to the Moon"
PERFORMER "Jan Mulder"
INDEX 00 08:46:53
INDEX 01 08:48:67
TRACK 05 AUDIO
TITLE "Ballade"
PERFORMER "Jan Mulder"
INDEX 00 11:56:31
INDEX 01 11:59:52
TRACK 06 AUDIO
TITLE "Air gracieux"
PERFORMER "Jan Mulder"
INDEX 00 16:02:49
INDEX 01 16:04:69
TRACK 07 AUDIO
TITLE "Lamento"
PERFORMER "Jan Mulder"
INDEX 00 19:40:23
INDEX 01 19:43:03
TRACK 08 AUDIO
TITLE "The Hero"
PERFORMER "Jan Mulder"
INDEX 00 23:46:08
INDEX 01 23:48:10
TRACK 09 AUDIO
TITLE "Prayer for Peace"
PERFORMER "Jan Mulder"
INDEX 00 27:28:60
INDEX 01 27:31:47
TRACK 10 AUDIO
TITLE "Nostalgia"
PERFORMER "Jan Mulder"
INDEX 00 30:57:44
INDEX 01 30:59:68
TRACK 11 AUDIO
TITLE "Endless Dream"
PERFORMER "Jan Mulder"
INDEX 00 36:56:30
INDEX 01 36:58:73
TRACK 12 AUDIO
TITLE "La grande marche"
PERFORMER "Jan Mulder"
INDEX 00 43:02:63
INDEX 01 43:05:46
TRACK 13 AUDIO
TITLE "Choral melancolique"
PERFORMER "Jan Mulder"
INDEX 00 45:42:68
INDEX 01 45:45:36
TRACK 14 AUDIO
TITLE "Prayer for Peace II"
PERFORMER "Jan Mulder"
INDEX 00 50:52:33
INDEX 01 50:55:30
TRACK 15 AUDIO
TITLE "Russian Romance"
PERFORMER "Jan Mulder"
INDEX 00 56:58:53
INDEX 01 57:01:22
TRACK 16 AUDIO
TITLE "Serenade of Love"
PERFORMER "Jan Mulder"
INDEX 00 60:02:21
INDEX 01 60:04:65
TRACK 17 AUDIO
TITLE "Ballad of a Lost Love"
PERFORMER "Jan Mulder"
INDEX 00 63:13:49
INDEX 01 63:17:00
TRACK 18 AUDIO
TITLE "Dance of Joy"
PERFORMER "Jan Mulder"
INDEX 00 66:09:47
INDEX 01 66:12:30

2011. The Piano Dreamer [w/ London Symphony Orchestra]

Жанр : Classical Crossover, Easy Listening
Год выпуска диска : 2011
Производитель диска : USA
Аудио кодек : FLAC
Тип рипа : image+.cue (Test & Copy)
Битрейт аудио : lossless
Продолжительность : 56:35
Лейбл : Miller Music
Каталожный номер : 628586714410
Источник (релизер): Рип оригинального диска из личной коллекции
Сканы: прилагаются


01. On Eagle's Wings
02. Island of Peace
03. Celtic Sunrise
04. Rainbow of Hope
05. You're The One
06. Happy Hearts
07. Musica Minore
08. The Piano Dreamer
09. Beauty & The Beast (A. Menken)
10. Daydreamer
11. Sailing Sunny Seas
12. Rendezvous (Chopin)
13. Silent Tears (Donizetti)
14. Meditation (Massenet)
15. Love Theme from Cinema Paradiso (A. Morricone)
16. The Final Encore (Tchaikovsky/Dvorak/Strauss, arr. JM)-
Jan Mulder, рояль, композитор и аранжировщик
London Symphony Orchestra
Nick Ingman, дирижер
Записано на Abbey Road Studios.

-

Лог создания рипа

Exact Audio Copy V1.0 beta 3 from 29. August 2011
EAC extraction logfile from 24. January 2014, 10:02
Jan Mulder & London Symphony Orchestra / The Piano Dreamer
Used drive : TSSTcorpCDDVDW TS-L633C Adapter: 2 ID: 0
Read mode : Secure
Utilize accurate stream : Yes
Defeat audio cache : Yes
Make use of C2 pointers : No
Read offset correction : 6
Overread into Lead-In and Lead-Out : No
Fill up missing offset samples with silence : Yes
Delete leading and trailing silent blocks : No
Null samples used in CRC calculations : Yes
Used interface : Native Win32 interface for Win NT & 2000
Used output format : Internal WAV Routines
Sample format : 44.100 Hz; 16 Bit; Stereo
TOC of the extracted CD
Track | Start | Length | Start sector | End sector
---------------------------------------------------------
1 | 0:00.00 | 3:04.33 | 0 | 13832
2 | 3:04.33 | 4:38.11 | 13833 | 34693
3 | 7:42.44 | 4:09.07 | 34694 | 53375
4 | 11:51.51 | 3:29.38 | 53376 | 69088
5 | 15:21.14 | 2:51.40 | 69089 | 81953
6 | 18:12.54 | 3:46.07 | 81954 | 98910
7 | 21:58.61 | 4:06.46 | 98911 | 117406
8 | 26:05.32 | 3:34.63 | 117407 | 133519
9 | 29:40.20 | 2:12.14 | 133520 | 143433
10 | 31:52.34 | 4:47.37 | 143434 | 164995
11 | 36:39.71 | 3:21.58 | 164996 | 180128
12 | 40:01.54 | 3:57.25 | 180129 | 197928
13 | 43:59.04 | 3:29.07 | 197929 | 213610
14 | 47:28.11 | 4:38.70 | 213611 | 234530
15 | 52:07.06 | 2:42.12 | 234531 | 246692
16 | 54:49.18 | 1:52.37 | 246693 | 255129
Range status and errors
Selected range
Filename C:\Users\user\Desktop\Jan Mulder (FLAC) [by italia57]\2011. The Piano Dreamer\Jan Mulder & London Symphony Orchestra - The Piano Dreamer (628586714410).wav
Peak level 96.1 %
Extraction speed 3.7 X
Range quality 100.0 %
Test CRC 3A48532D
Copy CRC 3A48532D
Copy OK
No errors occurred
AccurateRip summary
Track 1 not present in database
Track 2 not present in database
Track 3 not present in database
Track 4 not present in database
Track 5 not present in database
Track 6 not present in database
Track 7 not present in database
Track 8 not present in database
Track 9 not present in database
Track 10 not present in database
Track 11 not present in database
Track 12 not present in database
Track 13 not present in database
Track 14 not present in database
Track 15 not present in database
Track 16 not present in database
None of the tracks are present in the AccurateRip database
End of status report
---- CUETools DB Plugin V2.1.4
[CTDB TOCID: eDOriemiyPTt9bp.ngW_SdyjHas-] found
Submit result: eDOriemiyPTt9bp.ngW_SdyjHas- has been uploaded
Track | CTDB Status
1 | (1/1) Accurately ripped
2 | (0/1) No match
3 | (1/1) Accurately ripped
4 | (1/1) Accurately ripped
5 | (1/1) Accurately ripped
6 | (1/1) Accurately ripped
7 | (1/1) Accurately ripped
8 | (1/1) Accurately ripped
9 | (1/1) Accurately ripped
10 | (1/1) Accurately ripped
11 | (1/1) Accurately ripped
12 | (1/1) Accurately ripped
13 | (1/1) Accurately ripped
14 | (1/1) Accurately ripped
15 | (1/1) Accurately ripped
16 | (1/1) Accurately ripped
==== Log checksum F3FCD9D86948DE68F2C2E1E6AFCD924F97288EC3ACD55AE7A37F1025570E9E2F ====

Содержание индексной карты (.CUE)

REM GENRE Classical
REM DATE 2011
REM DISCID C80D4910
REM COMMENT "ExactAudioCopy v1.0b3"
PERFORMER "Jan Mulder & London Symphony Orchestra"
TITLE "The Piano Dreamer"
FILE "Jan Mulder & London Symphony Orchestra - The Piano Dreamer (628586714410).flac" WAVE
TRACK 01 AUDIO
TITLE "On Eagle's Wings"
PERFORMER "Jan Mulder & London Symphony Orchestra"
INDEX 01 00:00:00
TRACK 02 AUDIO
TITLE "Island of Peace"
PERFORMER "Jan Mulder & London Symphony Orchestra"
INDEX 01 03:04:33
TRACK 03 AUDIO
TITLE "Celtic Sunrise"
PERFORMER "Jan Mulder & London Symphony Orchestra"
INDEX 01 07:42:44
TRACK 04 AUDIO
TITLE "Rainbow of Hope"
PERFORMER "Jan Mulder & London Symphony Orchestra"
INDEX 01 11:51:51
TRACK 05 AUDIO
TITLE "You're the One"
PERFORMER "Jan Mulder & London Symphony Orchestra"
INDEX 01 15:21:14
TRACK 06 AUDIO
TITLE "Happy Hearts"
PERFORMER "Jan Mulder & London Symphony Orchestra"
INDEX 01 18:12:54
TRACK 07 AUDIO
TITLE "Musica Minore"
PERFORMER "Jan Mulder & London Symphony Orchestra"
INDEX 01 21:58:61
TRACK 08 AUDIO
TITLE "The Piano Dreamer"
PERFORMER "Jan Mulder & London Symphony Orchestra"
INDEX 01 26:05:32
TRACK 09 AUDIO
TITLE "Beauty & the Beast"
PERFORMER "Jan Mulder & London Symphony Orchestra"
INDEX 01 29:40:20
TRACK 10 AUDIO
TITLE "Daydreamer"
PERFORMER "Jan Mulder & London Symphony Orchestra"
INDEX 01 31:52:34
TRACK 11 AUDIO
TITLE "Sailing Sunny Seas"
PERFORMER "Jan Mulder & London Symphony Orchestra"
INDEX 01 36:39:71
TRACK 12 AUDIO
TITLE "Rendezvous"
PERFORMER "Jan Mulder & London Symphony Orchestra"
INDEX 01 40:01:54
TRACK 13 AUDIO
TITLE "Silent Tears"
PERFORMER "Jan Mulder & London Symphony Orchestra"
INDEX 01 43:59:04
TRACK 14 AUDIO
TITLE "Meditation"
PERFORMER "Jan Mulder & London Symphony Orchestra"
INDEX 01 47:28:11
TRACK 15 AUDIO
TITLE "Love Theme from Cinema Paradiso"
PERFORMER "Jan Mulder & London Symphony Orchestra"
INDEX 01 52:07:06
TRACK 16 AUDIO
TITLE "The Final Encore"
PERFORMER "Jan Mulder & London Symphony Orchestra"
INDEX 01 54:49:18

2013. Love Divine [w/ London Symphony Orchestra]

Жанр : Classical Crossover, Easy Listening
Год выпуска диска : 2013
Производитель диска : EU
Аудио кодек : FLAC
Тип рипа : image+.cue (Test & Copy)
Битрейт аудио : lossless
Продолжительность : 56:25
Лейбл : Miller Music
Каталожный номер : 628586714472
Источник (релизер): Рип оригинального диска из личной коллекции
Сканы: прилагаются


01. Sanctus (Schubert's Holy is the Lord)
02. Abide With Me (Monk's Eventide)
03. More Love to Thee (Doane)
04. How Deep the Father's Love (Townend)
05. It Is Well With My Soul (Bliss' Ville du Havre)
06. O Love Divine (Bortniansky's St. Petersburg)
07. Caccini's Hymn (Vavilov's Ave Maria)
08. Amazing Grace (New Britain)
09. As the Deer Pants for the Water - Prelude (Nystrom)
10. As the Deer Pants for the Water - Air (Nystrom)
11. As the Deer Pants for the Water - Scherzo (Nystrom)
12. As the Deer Pants for the Water - Intermezzo (Nystrom)
13. As the Deer Pants for the Water - Final (Nystrom)
14. Deep Love (Albinoni's Adagio / Ebenezer)
15. Great Is Thy Fathfulness (Runyan's Faithfulness)
16. Thine Be the Glory (Handel's Maccabeus/Arrival of the Queen of Sheba)-
Jan Mulder, рояль, аранжировщик и дирижер
London Symphony Orchestra, оркестр
Gordan Nikolitch, соло на скрипке, концертмейстер ЛСО
Jorge Calandrelli, Frederic Dunis, Jan Mulder - оркестровка

-

Лог создания рипа

Exact Audio Copy V1.0 beta 3 from 29. August 2011
EAC extraction logfile from 24. January 2014, 10:59
Jan Mulder & London Symphony Orchestra / Love Divine
Used drive : TSSTcorpCDDVDW TS-L633C Adapter: 2 ID: 0
Read mode : Secure
Utilize accurate stream : Yes
Defeat audio cache : Yes
Make use of C2 pointers : No
Read offset correction : 6
Overread into Lead-In and Lead-Out : No
Fill up missing offset samples with silence : Yes
Delete leading and trailing silent blocks : No
Null samples used in CRC calculations : Yes
Used interface : Native Win32 interface for Win NT & 2000
Used output format : Internal WAV Routines
Sample format : 44.100 Hz; 16 Bit; Stereo
TOC of the extracted CD
Track | Start | Length | Start sector | End sector
---------------------------------------------------------
1 | 0:00.00 | 5:09.74 | 0 | 23248
2 | 5:09.74 | 3:45.50 | 23249 | 40173
3 | 8:55.49 | 4:46.54 | 40174 | 61677
4 | 13:42.28 | 4:38.12 | 61678 | 82539
5 | 18:20.40 | 3:08.65 | 82540 | 96704
6 | 21:29.30 | 4:15.35 | 96705 | 115864
7 | 25:44.65 | 6:27.23 | 115865 | 144912
8 | 32:12.13 | 3:42.19 | 144913 | 161581
9 | 35:54.32 | 2:30.32 | 161582 | 172863
10 | 38:24.64 | 1:10.38 | 172864 | 178151
11 | 39:35.27 | 0:35.54 | 178152 | 180830
12 | 40:11.06 | 1:22.38 | 180831 | 187018
13 | 41:33.44 | 1:24.44 | 187019 | 193362
14 | 42:58.13 | 5:41.60 | 193363 | 218997
15 | 48:39.73 | 5:25.39 | 218998 | 243411
16 | 54:05.37 | 2:19.63 | 243412 | 253899
Range status and errors
Selected range
Filename C:\Users\user\Desktop\Jan Mulder (FLAC) [by italia57]\2013. Love Divine\Jan Mulder & London Symphony Orchestra - Love Divine (628586714472).wav
Peak level 94.4 %
Extraction speed 3.8 X
Range quality 100.0 %
Test CRC D9EE55D3
Copy CRC D9EE55D3
Copy OK
No errors occurred
AccurateRip summary
Track 1 not present in database
Track 2 not present in database
Track 3 not present in database
Track 4 not present in database
Track 5 not present in database
Track 6 not present in database
Track 7 not present in database
Track 8 not present in database
Track 9 not present in database
Track 10 not present in database
Track 11 not present in database
Track 12 not present in database
Track 13 not present in database
Track 14 not present in database
Track 15 not present in database
Track 16 not present in database
None of the tracks are present in the AccurateRip database
End of status report
---- CUETools DB Plugin V2.1.4
[CTDB TOCID: wi0nLn5mEFh8gZDXd5nO0WB1.3Q-] disk not present in database
Submit result: wi0nLn5mEFh8gZDXd5nO0WB1.3Q- has been uploaded
==== Log checksum 53A5C6C0639B76995EE59AE58A98EEA816CAD1B6DB1F4C1351A4635DD81BCEFD ====

Содержание индексной карты (.CUE)

REM GENRE Classical
REM DATE 2013
REM DISCID CD0D3910
REM COMMENT "ExactAudioCopy v1.0b3"
PERFORMER "Jan Mulder & London Symphony Orchestra"
TITLE "Love Divine"
FILE "Jan Mulder & London Symphony Orchestra - Love Divine (628586714472).flac" WAVE
TRACK 01 AUDIO
TITLE "Sanctus"
PERFORMER "Jan Mulder & London Symphony Orchestra"
INDEX 01 00:00:00
TRACK 02 AUDIO
TITLE "Abide With Me"
PERFORMER "Jan Mulder & London Symphony Orchestra"
INDEX 01 05:09:74
TRACK 03 AUDIO
TITLE "More Love to Thee"
PERFORMER "Jan Mulder & London Symphony Orchestra"
INDEX 01 08:55:49
TRACK 04 AUDIO
TITLE "How Deep the Father's Love"
PERFORMER "Jan Mulder & London Symphony Orchestra"
INDEX 01 13:42:28
TRACK 05 AUDIO
TITLE "It Is Well With My Soul"
PERFORMER "Jan Mulder & London Symphony Orchestra"
INDEX 01 18:20:40
TRACK 06 AUDIO
TITLE "O Love Divine"
PERFORMER "Jan Mulder & London Symphony Orchestra"
INDEX 01 21:29:30
TRACK 07 AUDIO
TITLE "Caccini's Hymn"
PERFORMER "Jan Mulder & London Symphony Orchestra"
INDEX 01 25:44:65
TRACK 08 AUDIO
TITLE "Amazing Grace"
PERFORMER "Jan Mulder & London Symphony Orchestra"
INDEX 01 32:12:13
TRACK 09 AUDIO
TITLE "As the Deer Pants for the Water - Prelude"
PERFORMER "Jan Mulder & London Symphony Orchestra"
INDEX 01 35:54:32
TRACK 10 AUDIO
TITLE "As the Deer Pants for the Water - Air"
PERFORMER "Jan Mulder & London Symphony Orchestra"
INDEX 01 38:24:64
TRACK 11 AUDIO
TITLE "As the Deer Pants for the Water - Scherzo"
PERFORMER "Jan Mulder & London Symphony Orchestra"
INDEX 01 39:35:27
TRACK 12 AUDIO
TITLE "As the Deer Pants for the Water - Intermezzo"
PERFORMER "Jan Mulder & London Symphony Orchestra"
INDEX 01 40:11:06
TRACK 13 AUDIO
TITLE "As the Deer Pants for the Water - Final"
PERFORMER "Jan Mulder & London Symphony Orchestra"
INDEX 01 41:33:44
TRACK 14 AUDIO
TITLE "Deep Love"
PERFORMER "Jan Mulder & London Symphony Orchestra"
INDEX 01 42:58:13
TRACK 15 AUDIO
TITLE "Great Is Thy Faithfulness"
PERFORMER "Jan Mulder & London Symphony Orchestra"
INDEX 01 48:39:73
TRACK 16 AUDIO
TITLE "Thine Be the Glory"
PERFORMER "Jan Mulder & London Symphony Orchestra"
INDEX 01 54:05:37

2014. Christmas [w/ London Symphony Orchestra]

Жанр : Classical Crossover, Easy Listening
Год выпуска диска : 2014
Производитель диска : USA
Аудио кодек : FLAC
Тип рипа : image+.cue (Test & Copy)
Битрейт аудио : lossless
Продолжительность : 54:34
Лейбл : Miller Music
Каталожный номер : 628586714489
Источник (релизер): Рип оригинального диска из личной коллекции
Сканы: прилагаются


01. O Holy Night
02. O Come All Ye Faithful
03. Silent Night, Holy Night
04. Angels We Have Heard On High
05. A Choir of a Thousand Angels [Feat. Andrea Bocelli]
06. Prince of Peace
07. Hark, The Herald Angels Sing
08. See Amid The Winter's Snow
09. The Son Of Mary
10. The Birthday of a King
11. He Is Born (1)
12. He Is Born (2)
13. He Is Born (3)
14. He Is Born (4)
15. He Is Born (5)
16. Away in a Manger
17. Mary's Lullaby
18. Sheep May Safely Graze-
Jan Mulder, рояль, аранжировщик и дирижер
London Symphony Orchestra, оркестр

-

Лог создания рипа

Exact Audio Copy V1.0 beta 4 from 7. December 2014
EAC extraction logfile from 3. November 2015, 10:52
Jan Mulder & London Symphony Orchestra / Christmas
Used drive : TSSTcorpCDDVDW TS-L633C Adapter: 1 ID: 0
Read mode : Secure
Utilize accurate stream : Yes
Defeat audio cache : Yes
Make use of C2 pointers : No
Read offset correction : 6
Overread into Lead-In and Lead-Out : No
Fill up missing offset samples with silence : Yes
Delete leading and trailing silent blocks : No
Null samples used in CRC calculations : Yes
Used interface : Native Win32 interface for Win NT & 2000
Used output format : Internal WAV Routines
Sample format : 44.100 Hz; 16 Bit; Stereo
TOC of the extracted CD
Track | Start | Length | Start sector | End sector
---------------------------------------------------------
1 | 0:00.00 | 3:09.67 | 0 | 14241
2 | 3:09.67 | 3:23.41 | 14242 | 29507
3 | 6:33.33 | 3:06.58 | 29508 | 43515
4 | 9:40.16 | 5:19.02 | 43516 | 67442
5 | 14:59.18 | 3:55.27 | 67443 | 85094
6 | 18:54.45 | 3:23.11 | 85095 | 100330
7 | 22:17.56 | 3:49.09 | 100331 | 117514
8 | 26:06.65 | 3:37.64 | 117515 | 133853
9 | 29:44.54 | 3:51.04 | 133854 | 151182
10 | 33:35.58 | 3:40.57 | 151183 | 167739
11 | 37:16.40 | 0:55.12 | 167740 | 171876
12 | 38:11.52 | 1:23.41 | 171877 | 178142
13 | 39:35.18 | 0:59.02 | 178143 | 182569
14 | 40:34.20 | 1:39.52 | 182570 | 190046
15 | 42:13.72 | 1:37.63 | 190047 | 197384
16 | 43:51.60 | 3:16.19 | 197385 | 212103
17 | 47:08.04 | 2:52.66 | 212104 | 225069
18 | 50:00.70 | 4:33.09 | 225070 | 245553
Range status and errors
Selected range
Filename H:\CD Releases\Jan Mulder (FLAC) [by italia57]\2014. Christmas\Jan Mulder & London Symphony Orchestra - Christmas (628586714489).wav
Peak level 96.5 %
Extraction speed 3.8 X
Range quality 100.0 %
Test CRC A2D0AE80
Copy CRC A2D0AE80
Copy OK
No errors occurred
AccurateRip summary
Track 1 accurately ripped (confidence 2) [C7E516FC] (AR v2)
Track 2 accurately ripped (confidence 2) [6897A3AB] (AR v2)
Track 3 accurately ripped (confidence 2) [81B37153] (AR v2)
Track 4 accurately ripped (confidence 2) [476CCA61] (AR v2)
Track 5 accurately ripped (confidence 2) [BE3BCD15] (AR v2)
Track 6 accurately ripped (confidence 2) [3B9A1328] (AR v2)
Track 7 accurately ripped (confidence 2) [76EC6752] (AR v2)
Track 8 accurately ripped (confidence 2) [4B7FA77C] (AR v2)
Track 9 accurately ripped (confidence 2) [3969500E] (AR v2)
Track 10 accurately ripped (confidence 2) [6C7B4CBC] (AR v2)
Track 11 accurately ripped (confidence 2) [38B130A5] (AR v2)
Track 12 accurately ripped (confidence 2) [500E38D4] (AR v2)
Track 13 accurately ripped (confidence 2) [24A1B678] (AR v2)
Track 14 accurately ripped (confidence 2) [FDA2AE65] (AR v2)
Track 15 accurately ripped (confidence 2) [47730658] (AR v2)
Track 16 accurately ripped (confidence 2) [FD648CFE] (AR v2)
Track 17 accurately ripped (confidence 2) [71F7C953] (AR v2)
Track 18 accurately ripped (confidence 2) [9B5F8240] (AR v2)
All tracks accurately ripped
End of status report
---- CUETools DB Plugin V2.1.4
[CTDB TOCID: 5f1n1sR_2OMz6laLK8_tW4cownk-] found
Submit result: 5f1n1sR_2OMz6laLK8_tW4cownk- has been confirmed
Track | CTDB Status
1 | (3/3) Accurately ripped
2 | (3/3) Accurately ripped
3 | (3/3) Accurately ripped
4 | (3/3) Accurately ripped
5 | (3/3) Accurately ripped
6 | (3/3) Accurately ripped
7 | (3/3) Accurately ripped
8 | (3/3) Accurately ripped
9 | (3/3) Accurately ripped
10 | (3/3) Accurately ripped
11 | (3/3) Accurately ripped
12 | (3/3) Accurately ripped
13 | (3/3) Accurately ripped
14 | (3/3) Accurately ripped
15 | (3/3) Accurately ripped
16 | (3/3) Accurately ripped
17 | (3/3) Accurately ripped
18 | (3/3) Accurately ripped
==== Log checksum 24FAA8A5A221FC635E971A4812263D4946F86AD006E0CB9EA911BF81297F84A7 ====

Содержание индексной карты (.CUE)

REM GENRE Classical
REM DATE 2014
REM DISCID F60CCA12
REM COMMENT "ExactAudioCopy v1.0b4"
PERFORMER "Jan Mulder & London Symphony Orchestra"
TITLE "Christmas"
FILE "Jan Mulder & London Symphony Orchestra - Christmas (628586714489).flac" WAVE
TRACK 01 AUDIO
TITLE "O Holy Night"
PERFORMER "Jan Mulder & London Symphony Orchestra"
INDEX 01 00:00:00
TRACK 02 AUDIO
TITLE "O Come All Ye Faithful"
PERFORMER "Jan Mulder & London Symphony Orchestra"
INDEX 00 03:07:67
INDEX 01 03:09:67
TRACK 03 AUDIO
TITLE "Silent Night, Holy Night"
PERFORMER "Jan Mulder & London Symphony Orchestra"
INDEX 00 06:32:29
INDEX 01 06:33:33
TRACK 04 AUDIO
TITLE "Angels We Have Heard On High"
PERFORMER "Jan Mulder & London Symphony Orchestra"
INDEX 00 09:39:61
INDEX 01 09:40:16
TRACK 05 AUDIO
TITLE "A Choir of a Thousand Angels [Feat. Andrea Bocelli]"
PERFORMER "Jan Mulder & London Symphony Orchestra"
INDEX 00 14:57:18
INDEX 01 14:59:18
TRACK 06 AUDIO
TITLE "Prince of Peace"
PERFORMER "Jan Mulder & London Symphony Orchestra"
INDEX 00 18:52:45
INDEX 01 18:54:45
TRACK 07 AUDIO
TITLE "Hark, The Herald Angels Sing"
PERFORMER "Jan Mulder & London Symphony Orchestra"
INDEX 00 22:16:61
INDEX 01 22:17:56
TRACK 08 AUDIO
TITLE "See Amid The Winter's Snow"
PERFORMER "Jan Mulder & London Symphony Orchestra"
INDEX 00 26:05:65
INDEX 01 26:06:65
TRACK 09 AUDIO
TITLE "The Son Of Mary"
PERFORMER "Jan Mulder & London Symphony Orchestra"
INDEX 00 29:43:59
INDEX 01 29:44:54
TRACK 10 AUDIO
TITLE "The Birthday of a King"
PERFORMER "Jan Mulder & London Symphony Orchestra"
INDEX 00 33:34:58
INDEX 01 33:35:58
TRACK 11 AUDIO
TITLE "He Is Born (1)"
PERFORMER "Jan Mulder & London Symphony Orchestra"
INDEX 00 37:15:10
INDEX 01 37:16:40
TRACK 12 AUDIO
TITLE "He Is Born (2)"
PERFORMER "Jan Mulder & London Symphony Orchestra"
INDEX 01 38:11:52
TRACK 13 AUDIO
TITLE "He Is Born (3)"
PERFORMER "Jan Mulder & London Symphony Orchestra"
INDEX 01 39:35:18
TRACK 14 AUDIO
TITLE "He Is Born (4)"
PERFORMER "Jan Mulder & London Symphony Orchestra"
INDEX 01 40:34:20
TRACK 15 AUDIO
TITLE "He Is Born (5)"
PERFORMER "Jan Mulder & London Symphony Orchestra"
INDEX 01 42:13:72
TRACK 16 AUDIO
TITLE "Away in a Manger"
PERFORMER "Jan Mulder & London Symphony Orchestra"
INDEX 00 43:50:60
INDEX 01 43:51:60
TRACK 17 AUDIO
TITLE "Mary's Lullaby"
PERFORMER "Jan Mulder & London Symphony Orchestra"
INDEX 00 47:07:59
INDEX 01 47:08:04
TRACK 18 AUDIO
TITLE "Sheep May Safely Graze"
PERFORMER "Jan Mulder & London Symphony Orchestra"
INDEX 00 49:59:60
INDEX 01 50:00:70
--



Показать сообщения:    

Текущее время: 05-Дек 03:30

Часовой пояс: UTC + 3


Вы не можете начинать темы
Вы не можете отвечать на сообщения
Вы не можете редактировать свои сообщения
Вы не можете удалять свои сообщения
Вы не можете голосовать в опросах
Вы не можете прикреплять файлы к сообщениям
Вы не можете скачивать файлы