(Classical) Pergolesi - Septem verba a Christo in cruce moriente prolata (Rene Jacobs, Sophie Karthauser, Christophe Dumaux) - 2013, FLAC (image+.cue) lossless


 

[Цитировать]

Pergolesi - Septem verba a Christo in cruce moriente prolata (René Jacobs, Sophie Karthäuser, Christophe Dumaux)
Жанр: Classical
Год издания диска: 2013
Издатель (лейбл): Harmonia Mundi
Номер по каталогу: HMC 902155
Аудиокодек: FLAC
Тип рипа: image+.cue
Битрейт аудио: lossless
Продолжительность: 80:30
Источник: собственный рип
Наличие сканов в содержимом раздачи: да
Треклист:
Verbum I: Pater, dimitte illis: non enim sciunt qui faciunt (Luke 23:34)
01. Christus (bass) Recitativo: Huc, o dilecti filii
02. Aria: En doceo diligere
03. Anima (alto) Aria: Quod iubes, magne Domine
Verbum II: Amen dico tibi: hodie mecum eris in Paradiso (Luke 25:43)
04. Christus (tenor) Recitativo: Venite, currite
05. Aria: Latronem hunc aspicite
06. Anima (soprano) Aria: Ah! peccatoris supplicis
Verbum III: Mulier ecce filius tuus (John 19:26)
07. Christus (bass) Recitativo: Quo me, amor?
08. Aria: Dilecta Genitrix
09. Anima (soprano) Recitativo: Servator optime
10. Aria: Quod iubes, magne Domine
Verbum IV: Deus meus, deus meus, ut quid dereliquisti me? (Mark 15:34)
11. Christus (bass) Aria: Huc oculos
12. Anima (alto) Aria: Afflicte, derelicte
Verbum V: Sitio (John 19:28)
13. Christus (bass) Aria: O vos omnes, qui transitis
14. Anima (tenor) Aria: Non nectar, non vinum, non undas
Verbum VI: Consummatum est (John 19:29)
15. Christus (bass) Aria: Huc advolate mortales
16. Anima (soprano) Aria: Sic consummasti omnia
Verbum VII: Pater, in manus tuas commendo spiritum meum (Luke 23:44-46)
17. Christus (bass) Recitativo: Quotquot coram cruce statis
18. Aria: In tuum, Pater, gremium
19. Anima (tenor) Aria: Quid ultra peto vivere
Исполнители:
Sophie Karthäuser, soprano
Christophe Dumaux, countertenor
Julien Behr, tenor
Konstantin Wolff, bass
Akademie für Alte Musik Berlin
René Jacobs, conductor

LOG EAC

Exact Audio Copy V1.0 beta 2 from 29. April 2011
EAC extraction logfile from 16. May 2013, 22:35
René Jacobs, S.Karthäuser, C.Dumaux, J.Behr, K.Wolff / Pergolesi - Septem verba a Christo in cruce moriente prolata
Used drive : PIONEER DVD-RW DVR-218L Adapter: 0 ID: 1
Read mode : Secure
Utilize accurate stream : Yes
Defeat audio cache : Yes
Make use of C2 pointers : No
Read offset correction : 6
Overread into Lead-In and Lead-Out : No
Fill up missing offset samples with silence : Yes
Delete leading and trailing silent blocks : No
Null samples used in CRC calculations : Yes
Used interface : Native Win32 interface for Win NT & 2000
Used output format : User Defined Encoder
Selected bitrate : 192 kBit/s
Quality : High
Add ID3 tag : No
Command line compressor : C:\Program Files\Exact Audio Copy\Flac\flac.exe
Additional command line options : -T "DATE=%year%" -T "GENRE=%genre%" -8 -V %source%
TOC of the extracted CD
Track | Start | Length | Start sector | End sector
---------------------------------------------------------
1 | 0:00.00 | 1:57.05 | 0 | 8779
2 | 1:57.05 | 4:38.34 | 8780 | 29663
3 | 6:35.39 | 4:02.43 | 29664 | 47856
4 | 10:38.07 | 0:55.04 | 47857 | 51985
5 | 11:33.11 | 4:23.20 | 51986 | 71730
6 | 15:56.31 | 5:04.66 | 71731 | 94596
7 | 21:01.22 | 2:01.16 | 94597 | 103687
8 | 23:02.38 | 3:35.22 | 103688 | 119834
9 | 26:37.60 | 1:18.54 | 119835 | 125738
10 | 27:56.39 | 5:59.60 | 125739 | 152723
11 | 33:56.24 | 5:57.29 | 152724 | 179527
12 | 39:53.53 | 5:40.19 | 179528 | 205046
13 | 45:33.72 | 5:19.24 | 205047 | 228995
14 | 50:53.21 | 4:13.18 | 228996 | 247988
15 | 55:06.39 | 6:09.62 | 247989 | 275725
16 | 61:16.26 | 5:35.40 | 275726 | 300890
17 | 66:51.66 | 1:36.68 | 300891 | 308158
18 | 68:28.59 | 5:33.50 | 308159 | 333183
19 | 74:02.34 | 6:25.47 | 333184 | 362105
Range status and errors
Selected range
Filename C:\Pergolesi - Septem verba a Christo in cruce moriente prolata.wav
Peak level 94.4 %
Extraction speed 1.9 X
Range quality 100.0 %
Test CRC 18F8D26B
Copy CRC 18F8D26B
Copy OK
No errors occurred
AccurateRip summary
Track 1 not present in database
Track 2 not present in database
Track 3 not present in database
Track 4 not present in database
Track 5 not present in database
Track 6 not present in database
Track 7 not present in database
Track 8 not present in database
Track 9 not present in database
Track 10 not present in database
Track 11 not present in database
Track 12 not present in database
Track 13 not present in database
Track 14 not present in database
Track 15 not present in database
Track 16 not present in database
Track 17 not present in database
Track 18 not present in database
Track 19 not present in database
None of the tracks are present in the AccurateRip database
End of status report
==== Log checksum 389924626BACEF211F229A67B39B7418500D8D77F07A36FDA81EABC164C7C32F ====

Содержание индексной карты (.CUE)

REM GENRE Classical
REM DATE 2013
REM DISCID 2112DC13
REM COMMENT "ExactAudioCopy v1.0b2"
PERFORMER "Rene Jacobs, S.Karthauser, C.Dumaux, J.Behr, K.Wolff "
TITLE "Pergolesi - Septem verba a Christo in cruce moriente prolata"
FILE "Pergolesi - Septem verba a Christo in cruce moriente prolata.flac" WAVE
TRACK 01 AUDIO
TITLE "Verbum I. Christus (bass) Recitativo: Huc, o dilecti filii"
PERFORMER "Rene Jacobs, S.Karthauser, C.Dumaux, J.Behr, K.Wolff "
INDEX 01 00:00:00
TRACK 02 AUDIO
TITLE "Aria: En doceo diligere"
PERFORMER "Rene Jacobs, S.Karthauser, C.Dumaux, J.Behr, K.Wolff "
INDEX 01 01:57:05
TRACK 03 AUDIO
TITLE "Anima (alto) Aria: Quod iubes, magne Domine"
PERFORMER "Rene Jacobs, S.Karthauser, C.Dumaux, J.Behr, K.Wolff "
INDEX 01 06:35:39
TRACK 04 AUDIO
TITLE "Verbum II. Christus (tenor) Recitativo: Venite, currite"
PERFORMER "Rene Jacobs, S.Karthauser, C.Dumaux, J.Behr, K.Wolff "
INDEX 01 10:38:07
TRACK 05 AUDIO
TITLE "Aria: Latronem hunc aspicite"
PERFORMER "Rene Jacobs, S.Karthauser, C.Dumaux, J.Behr, K.Wolff "
INDEX 01 11:33:11
TRACK 06 AUDIO
TITLE "Anima (soprano) Aria: Ah! peccatoris supplicis"
PERFORMER "Rene Jacobs, S.Karthauser, C.Dumaux, J.Behr, K.Wolff "
INDEX 01 15:56:31
TRACK 07 AUDIO
TITLE "Verbum III. Christus (bass) Recitativo: Quo me, amor?"
PERFORMER "Rene Jacobs, S.Karthauser, C.Dumaux, J.Behr, K.Wolff "
INDEX 01 21:01:22
TRACK 08 AUDIO
TITLE "Aria: Dilecta Genitrix"
PERFORMER "Rene Jacobs, S.Karthauser, C.Dumaux, J.Behr, K.Wolff "
INDEX 01 23:02:38
TRACK 09 AUDIO
TITLE "Anima (soprano) Recitativo: Servator optime"
PERFORMER "Rene Jacobs, S.Karthauser, C.Dumaux, J.Behr, K.Wolff "
INDEX 01 26:37:60
TRACK 10 AUDIO
TITLE "Aria: Quod iubes, magne Domine"
PERFORMER "Rene Jacobs, S.Karthauser, C.Dumaux, J.Behr, K.Wolff "
INDEX 01 27:56:39
TRACK 11 AUDIO
TITLE "Verbum IV. Christus (bass) Aria: Huc oculos"
PERFORMER "Rene Jacobs, S.Karthauser, C.Dumaux, J.Behr, K.Wolff "
INDEX 01 33:56:24
TRACK 12 AUDIO
TITLE "Anima (alto) Aria: Afflicte, derelicte"
PERFORMER "Rene Jacobs, S.Karthauser, C.Dumaux, J.Behr, K.Wolff "
INDEX 01 39:53:53
TRACK 13 AUDIO
TITLE "Verbum V. Christus (bass) Aria: O vos omnes, qui transitis"
PERFORMER "Rene Jacobs, S.Karthauser, C.Dumaux, J.Behr, K.Wolff "
INDEX 01 45:33:72
TRACK 14 AUDIO
TITLE "Anima (tenor) Aria: Non nectar, non vinum, non undas"
PERFORMER "Rene Jacobs, S.Karthauser, C.Dumaux, J.Behr, K.Wolff "
INDEX 01 50:53:21
TRACK 15 AUDIO
TITLE "Verbum VI. Christus (bass) Aria: Huc advolate mortales"
PERFORMER "Rene Jacobs, S.Karthauser, C.Dumaux, J.Behr, K.Wolff "
INDEX 01 55:06:39
TRACK 16 AUDIO
TITLE "Anima (soprano) Aria: Sic consummasti omnia"
PERFORMER "Rene Jacobs, S.Karthauser, C.Dumaux, J.Behr, K.Wolff "
INDEX 01 61:16:26
TRACK 17 AUDIO
TITLE "Verbum VII. Christus (bass) Recitativo: Quotquot coram cruce statis"
PERFORMER "Rene Jacobs, S.Karthauser, C.Dumaux, J.Behr, K.Wolff "
INDEX 01 66:51:66
TRACK 18 AUDIO
TITLE "Aria: In tuum, Pater, gremium"
PERFORMER "Rene Jacobs, S.Karthauser, C.Dumaux, J.Behr, K.Wolff "
INDEX 01 68:28:59
TRACK 19 AUDIO
TITLE "Anima (tenor) Aria: Quid ultra peto vivere"
PERFORMER "Rene Jacobs, S.Karthauser, C.Dumaux, J.Behr, K.Wolff "
INDEX 01 74:02:34
Доп. информация:
mp3



Показать сообщения:    

Текущее время: 04-Дек 15:12

Часовой пояс: UTC + 3


Вы не можете начинать темы
Вы не можете отвечать на сообщения
Вы не можете редактировать свои сообщения
Вы не можете удалять свои сообщения
Вы не можете голосовать в опросах
Вы не можете прикреплять файлы к сообщениям
Вы не можете скачивать файлы