(Classical, contemporary) Across the Sea - Chinese-American Flute Concertos: Zhou Long, Bright Sheng, Chen Yi - Sharon Bezaly, Singapore Symphony Orchestra, Lan Shui - 2011, FLAC (image+.cue) lossless


Статистика раздачи [Обновить пиров]
Размер:  251 MB   |    Зарегистрирован:  8 месяцев 21 день   |    Скачан:  0 раз

Полного источника не было: Никогда

 
   
 
 
 

[Цитировать]

Across the Sea - Chinese-American Flute Concertos: Zhou Long, Bright Sheng, Chen Yi - Sharon Bezaly, Singapore Symphony Orchestra, Lan Shui
Жанр: Classical, contemporary
Страна-производитель диска: Sweden
Год издания диска: 2011
Издатель (лейбл): BIS
Номер по каталогу: BIS-CD-1739
Дата записи: 2000, 2004, 2008
Аудиокодек: FLAC
Тип рипа: image+.cue
Битрейт аудио: lossless
Продолжительность: 71:14
Источник: собственный рип
Наличие сканов в содержимом раздачи: да
Треклист:
Chinese-American Flute Concertos
Zhou Long (b. 1953)
[1]-[5] Five Elements (2008)
Concerto for flute and orchestra
Bright Sheng (b. 1955)
[6]-[7] Flute Moon (1999)
for piccolo/flute, harp, percussion and strings
Zhou Long
[8] The Deep, Deep Sea (2004)
for alto flute/piccolo solo, timpani, harp and strings
Chen Yi (b. 1953)
[9]-[12] The Golden Flute (1997/2008)
Concerto for flute and orchestra
Исполнители:
Sharon Bezaly flute
Singapore Symphony Orchestra
Lan Shui
conductor

Лог создания рипа

Exact Audio Copy V1.0 beta 3 from 29. August 2011
EAC extraction logfile from 8. December 2013, 1:57
Sharon Bezaly, Singapore Symphony Orchestra, Lan Shui / Across the Sea
Used drive : HL-DT-STDVDRAM GSA-4083N Adapter: 1 ID: 0
Read mode : Secure
Utilize accurate stream : Yes
Defeat audio cache : Yes
Make use of C2 pointers : No
Read offset correction : 667
Overread into Lead-In and Lead-Out : No
Fill up missing offset samples with silence : Yes
Delete leading and trailing silent blocks : No
Null samples used in CRC calculations : Yes
Used interface : Native Win32 interface for Win NT & 2000
Used output format : User Defined Encoder
Selected bitrate : 896 kBit/s
Quality : High
Add ID3 tag : No
Command line compressor : C:\Program Files\Exact Audio Copy\Flac\flac.exe
Additional command line options : -V -8 %source%
TOC of the extracted CD
Track | Start | Length | Start sector | End sector
---------------------------------------------------------
1 | 0:00.00 | 6:33.44 | 0 | 29518
2 | 6:33.44 | 3:55.54 | 29519 | 47197
3 | 10:29.23 | 7:52.66 | 47198 | 82663
4 | 18:22.14 | 5:18.08 | 82664 | 106521
5 | 23:40.22 | 3:15.52 | 106522 | 121198
6 | 26:55.74 | 5:59.09 | 121199 | 148132
7 | 32:55.08 | 12:03.28 | 148133 | 202385
8 | 44:58.36 | 10:54.53 | 202386 | 251488
9 | 55:53.14 | 4:03.32 | 251489 | 269745
10 | 59:56.46 | 1:33.01 | 269746 | 276721
11 | 61:29.47 | 2:18.18 | 276722 | 287089
12 | 63:47.65 | 7:26.34 | 287090 | 320573
Range status and errors
Selected range
Filename J:\New Music\BIS-CD-1739 - Across the Sea (Sharon Bezaly - BIS)\Across the Sea.wav
Peak level 100.0 %
Extraction speed 2.8 X
Range quality 100.0 %
Test CRC 7E0F43E1
Copy CRC 7E0F43E1
Copy OK
No errors occurred
AccurateRip summary
Track 1 accurately ripped (confidence 1) [138437A4] (AR v2)
Track 2 accurately ripped (confidence 1) [E7918674] (AR v2)
Track 3 accurately ripped (confidence 1) [91C5A4AA] (AR v2)
Track 4 accurately ripped (confidence 1) [F61AEF8A] (AR v2)
Track 5 accurately ripped (confidence 1) [590D0A81] (AR v2)
Track 6 accurately ripped (confidence 1) [90DFA7F3] (AR v2)
Track 7 accurately ripped (confidence 1) [74ED360D] (AR v2)
Track 8 accurately ripped (confidence 1) [81AD26FE] (AR v2)
Track 9 accurately ripped (confidence 1) [359F4F98] (AR v2)
Track 10 accurately ripped (confidence 1) [122EE685] (AR v2)
Track 11 accurately ripped (confidence 1) [DA79483A] (AR v2)
Track 12 accurately ripped (confidence 1) [E9E0146E] (AR v2)
All tracks accurately ripped
End of status report
==== Log checksum ADC6175C047ED729BEA2E7F8BB9A8F4ACF825CBC73A8C6ABF82E6786B0842F2E ====
[teatrix.ru].t18093.torrent 
Торрент: Зарегистрирован [ 2016-03-17 00:43 ] · 453509061136E6A97B3C6FD4A9603401404AFB43

Скачать .torrent

Скачать

40 KB

Статус: проверено
Скачан: 0 раз
Размер: 251 MB
terms.php



Быстрый ответ

Имя:

      
Для отправки сообщений необходимо включить JavaScript
Показать сообщения:    

Текущее время: 07-Дек 23:19

Часовой пояс: UTC + 3


Вы можете начинать темы
Вы можете отвечать на сообщения
Вы не можете редактировать свои сообщения
Вы не можете удалять свои сообщения
Вы не можете голосовать в опросах
Вы не можете прикреплять файлы к сообщениям
Вы можете скачивать файлы