(Classical) Хачатурян / Khachaturian - Концерт для скрипки с оркестром | Saint-Saens - Havanaise • Introduction et Rondo capriccioso | Chausson - Poeme (Леонид Коган, Давид Ойстрах, Pierre Monteux, Charles Munch) - 2008, FLAC (image+.cue) lossless


Статистика раздачи [Обновить пиров]
Размер:  343 MB   |    Зарегистрирован:  8 месяцев 24 дня   |    Скачан:  0 раз

Полного источника не было: Никогда

 
   
 
 
 

[Цитировать]

Арам ХачатурянCamille Saint-SaënsErnest Chausson


Works for Violin and Orchestra | Произведения для скрипки с оркестром


Леонид КоганДавид Ойстрах violins
Boston Symphony Orchestra
Pierre MonteuxCharles Munch conductors


Жанр: Classical / Violin
Даты записи: 1958, 1955
Формат записи: ADD, Stereo
Год издания диска: 2008
Издатель (лейбл): BMG/RCA
Номер по каталогу: BVCC-34426 (88697-40279-2)
Аудиокодек: FLAC
Тип рипа: image+.cue
Битрейт аудио: lossless
Продолжительность: 1:08:32
Наличие сканов в содержимом раздачи: обложки
Источник: ahhfwww Classical blog


Tracklist / Треклист
Арам Хачатурян (Aram Khachaturian)
Концерт для скрипки с оркестром ре минор (Violin Concerto in D minor) (1940) - 34:47
I. Allegro con fermezza - 13:22
  • II. Andante sostenuto - 12:03
  • III. Allegro vivace - 9:22
    Camille Saint-Saëns
    Havanaise, Op. 83 - 9:07
    I. Allegretto e lusinghiero - 2:16
  • II. Allegro - 4:45
  • III. Allegro, ma non troppo - 2:06
    Ernest Chausson
    Poème, Op. 25 - 15:39
    Camille Saint-Saëns
    Introduction et Rondo capriccioso, Op. 28 - 8:59
    Andante - 1:52
  • Allegro, ma non troppo - 6:30
  • Più Allegro - 0:37
    _____
    Leonid Kogan, Boston Symphony Orchestra. Pierre Monteux, conductor [1-6]
    David Oistrakh, Boston Symphony Orchestra. Charles Munch, conductor [7-10]
    Recorded: 12 & 13 January 1958 [1-6], 14 December 1955 [7-10]




    -

    EAC log / Отчёт EAC

    Exact Audio Copy V0.99 prebeta 5 from 4. May 2009
    EAC 抓取日志文件从31. 一月 2011, 12:15
    ahhfwww Classical Leonid Kogan David Oistrakh / Khachaturian, Saint-Saens, Chausson
    使用驱动器 :PLEXTOR CD-R PX-W4012A Adapter: 1 ID: 0
    读取模式 : 保护
    使用精确流 : 是
    废除音频缓冲 : 是
    使用 C2 指针 : 否
    读取偏移校正 : 98
    读取 Lead-In 和 Lead-Out : 是
    用静音填充抓取中丢失偏移的采样 : 是
    去除首尾静音块 : 否
    在 CRC 计算中使用了空样本 : 否
    已用接口 : Win NT 及 2000 本地 Win32 接口
    所用输出格式 : 用户定义的编码器
    已选比特率 : 1024 kBit/s
    质量 : 高
    添加 ID3 标签 : 否
    命令行压缩器 : D:\Program Files\Exact Audio Copy\FLAC\FLAC.EXE
    附加命令行参数 : -6 -V -T "ARTIST=%a" -T "TITLE=%t" -T "ALBUM=%g" -T "DATE=%y" -T "TRACKNUMBER=%n" -T "GENRE=%m" -T "COMMENT=%e" %s -o %d
    被抓轨 CD 的 TOC
    音轨 | 开始 | 长度 | 起始扇区 | 结尾扇区
    --------------------------------------------------
    1 | 0:00.00 | 13:21.62 | 0 | 60136
    2 | 13:21.62 | 12:03.25 | 60137 | 114386
    3 | 25:25.12 | 9:22.13 | 114387 | 156549
    4 | 34:47.25 | 2:16.37 | 156550 | 166786
    5 | 37:03.62 | 4:44.55 | 166787 | 188141
    6 | 41:48.42 | 2:05.63 | 188142 | 197579
    7 | 43:54.30 | 15:39.07 | 197580 | 268011
    8 | 59:33.37 | 1:51.43 | 268012 | 276379
    9 | 61:25.05 | 6:29.62 | 276380 | 305616
    10 | 67:54.67 | 0:37.33 | 305617 | 308424
    范围状态及错误
    已选择范围
    文件名 D:\ahhfwww Classical\ahhfwww Classical\ahhfwww Classical Leonid Kogan David Oistrakh - Khachaturian, Saint-Saens, Chausson.wav
    峰值电平 96.1 %
    范围质量 100.0 %
    复制 CRC 8A2E0183
    复制成功
    没有错误发生
    AccurateRip 概要
    音轨 1 已正确抓取 (确认 2) [597F9041]
    音轨 2 已正确抓取 (确认 2) [6076A05C]
    音轨 3 已正确抓取 (确认 2) [E223D2B7]
    音轨 4 已正确抓取 (确认 2) [B2A5B415]
    音轨 5 已正确抓取 (确认 2) [0C705623]
    音轨 6 已正确抓取 (确认 2) [426D3C43]
    音轨 7 已正确抓取 (确认 2) [178CE647]
    音轨 8 已正确抓取 (确认 2) [C32317B7]
    音轨 9 已正确抓取 (确认 2) [5C6010E6]
    音轨 10 已正确抓取 (确认 2) [D12A0808]
    所有音轨已被精确抓取
    状态报告结尾

    auCDtect Task Manager log / Отчёт auCDtect Task Manager

    -----------------------
    DON'T MODIFY THIS FILE
    -----------------------
    PERFORMER: auCDtect Task Manager, ver. 1.5.1RC3 build 1.5.1.4
    Copyright (c) 2008-2010 y-soft. All rights reserved
    ANALYZER: auCDtect: CD records authenticity detector, version 0.8.2
    Copyright (c) 2004 Oleg Berngardt. All rights reserved.
    Copyright (c) 2004 Alexander Djourik. All rights reserved.
    FILE: Khachaturian, Saint-Saens, Chausson (Kogan, Monteux, Oistrakh, Munch).flac
    Size: 355409554 Hash: F635C0A6E8469F1A1ED30D1F91199D91 Accuracy: -m0
    Conclusion: CDDA 99%
    Signature: 73D2C9194C2CB116EC9F3CCB2AA09CEC15883B4E

    CUETools log / Отчёт CUETools

    [CUETools log; Date: 27.01.2014 10:58:16; Version: 2.1.4]
    [AccurateRip ID: 001f28a1-00ecc0c4-9010100a] found.
    Track [ CRC | V2 ] Status
    01 [597f9041|e1564f29] (3+3/6) Accurately ripped
    02 [6076a05c|4701e3d9] (3+3/6) Accurately ripped
    03 [e223d2b7|29281bcf] (3+3/6) Accurately ripped
    04 [b2a5b415|f98a742a] (3+3/6) Accurately ripped
    05 [0c705623|6993df28] (3+3/6) Accurately ripped
    06 [426d3c43|8f3c7834] (3+3/6) Accurately ripped
    07 [178ce647|88ba4756] (3+3/6) Accurately ripped
    08 [c32317b7|1306cf7f] (3+3/6) Accurately ripped
    09 [5c6010e6|a4a1b8eb] (3+3/6) Accurately ripped
    10 [d12a0808|9edcc67f] (3+3/6) Accurately ripped
    Track Peak [ CRC32 ] [W/O NULL]
    -- 96,1 [5A4D2E56] [8A2E0183]
    01 92,3 [BD456BED] [1B16BAFB]
    02 95,8 [5748B1FC] [303A4949]
    03 96,1 [B6668518] [E9BEEF60]
    04 32,6 [9FC5F09A] [36AFE61F]
    05 88,2 [5F432B14] [4D277C39]
    06 94,9 [36906C55] [636FBAD6]
    07 88,1 [E2FE01B8] [F0DFB968]
    08 58,7 [905B2561] [77C2749D]
    09 95,1 [32127FE1] [571C71D5]
    10 88,9 [F67F90AD] [EC17A515]

    CUE sheet

    TITLE "Khachaturian, Saint-Saëns, Chausson: Works for violin and orchestra"
    PERFORMER "Leonid Kogan, David Oistrakh"
    REM GENRE Classical
    REM DISCID 9010100A
    REM COMMENT "ExactAudioCopy v0.99pb5"
    CATALOG 4988017606681
    FILE "Khachaturian, Saint-Saens, Chausson (Kogan, Monteux, Oistrakh, Munch).flac" WAVE
    TRACK 01 AUDIO
    TITLE "Khachaturian. Violin Concerto in D minor (1940): I. Allegro con fermezza"
    PERFORMER "Leonid Kogan, Boston Symphony Orchestra. Pierre Monteux, conductor"
    REM DATE 1958
    INDEX 01 00:00:00
    TRACK 02 AUDIO
    TITLE "Khachaturian. Violin Concerto in D minor (1940): II. Andante sostenuto"
    PERFORMER "Leonid Kogan, Boston Symphony Orchestra. Pierre Monteux, conductor"
    REM DATE 1958
    INDEX 00 13:19:26
    INDEX 01 13:21:62
    TRACK 03 AUDIO
    TITLE "Khachaturian. Violin Concerto in D minor (1940): III. Allegro vivace"
    PERFORMER "Leonid Kogan, Boston Symphony Orchestra. Pierre Monteux, conductor"
    REM DATE 1958
    INDEX 00 25:22:38
    INDEX 01 25:25:12
    TRACK 04 AUDIO
    TITLE "Saint-Saëns. Havanaise, Op. 83: I. Allegretto e lusinghiero"
    PERFORMER "Leonid Kogan, Boston Symphony Orchestra. Pierre Monteux, conductor"
    REM DATE 1958
    INDEX 00 34:39:01
    INDEX 01 34:47:25
    TRACK 05 AUDIO
    TITLE "Saint-Saëns. Havanaise, Op. 83: II. Allegro"
    PERFORMER "Leonid Kogan, Boston Symphony Orchestra. Pierre Monteux, conductor"
    REM DATE 1958
    INDEX 01 37:03:62
    TRACK 06 AUDIO
    TITLE "Saint-Saëns. Havanaise, Op. 83: III. Allegro, ma non troppo"
    PERFORMER "Leonid Kogan, Boston Symphony Orchestra. Pierre Monteux, conductor"
    REM DATE 1958
    INDEX 01 41:48:42
    TRACK 07 AUDIO
    TITLE "Chausson. Poème, Op. 25"
    PERFORMER "David Oistrakh, Boston Symphony Orchestra. Charles Munch, conductor"
    REM DATE 1955
    INDEX 00 43:46:13
    INDEX 01 43:54:30
    TRACK 08 AUDIO
    TITLE "Saint-Saëns. Introduction et Rondo capriccioso, Op. 28: Andante"
    PERFORMER "David Oistrakh, Boston Symphony Orchestra. Charles Munch, conductor"
    REM DATE 1955
    INDEX 00 59:26:63
    INDEX 01 59:33:37
    TRACK 09 AUDIO
    TITLE "Saint-Saëns. Introduction et Rondo capriccioso, Op. 28: Allegro, ma non troppo"
    PERFORMER "David Oistrakh, Boston Symphony Orchestra. Charles Munch, conductor"
    REM DATE 1955
    INDEX 01 61:25:05
    TRACK 10 AUDIO
    TITLE "Saint-Saëns. Introduction et Rondo capriccioso, Op. 28: Più Allegro"
    PERFORMER "David Oistrakh, Boston Symphony Orchestra. Charles Munch, conductor"
    REM DATE 1955
    INDEX 01 67:54:67
    -
    Все мои раздачи / All my releases
    [teatrix.ru].t18097.torrent 
    Торрент: Зарегистрирован [ 2016-03-17 00:43 ] · 53315B4494B41755ACF284FA7205481BEE5A0DB1

    Скачать .torrent

    Скачать

    15 KB

    Статус: проверено
    Скачан: 0 раз
    Размер: 343 MB
    terms.php



  • Быстрый ответ

    Имя:

          
    Для отправки сообщений необходимо включить JavaScript
    Показать сообщения:    

    Текущее время: 10-Дек 11:50

    Часовой пояс: UTC + 3


    Вы можете начинать темы
    Вы можете отвечать на сообщения
    Вы не можете редактировать свои сообщения
    Вы не можете удалять свои сообщения
    Вы не можете голосовать в опросах
    Вы не можете прикреплять файлы к сообщениям
    Вы можете скачивать файлы