(Classical) Дмитрий Шостакович - Концерт для виолончели с оркестром № 2; Соната для виолончели и фортепиано - Sol Gabetta, Mihaela Ursuleasa; Munchner Philharmoniker, Marc Albrecht - 2008, FLAC (image+.cue) lossless


Статистика раздачи [Обновить пиров]
Размер:  283 MB   |    Зарегистрирован:  8 месяцев 25 дней   |    Скачан:  1 раз

Полного источника не было: 19 дней

 
   
 
 
 

[Цитировать]

Дмитрий Шостакович - Концерт для виолончели с оркестром № 2; Соната для виолончели и фортепиано - Sol Gabetta, Mihaela Ursuleasa; Münchner Philharmoniker, Marc Albrecht
Жанр: Classical
Год издания диска: 2008
Издатель (лейбл): RCA Red Seal
Дата записи: 2008
Аудиокодек: FLAC
Тип рипа: image+.cue
Битрейт аудио: lossless
Продолжительность: 66:01
Источник: собственный рип
Наличие сканов в содержимом раздачи: да
Треклист:
Дмитрий Дмитриевич Шостакович (1906-1975)
[1]-[3] Концерт для виолончели с оркестром № 2 соль мажор, Op. 126
[4]-[7] Соната для виолончели и фортепиано ре минор, Op. 40
Исполнители:
Sol Gabetta cello
Mihaela Ursuleasa piano
Münchner Philharmoniker
Marc Albrecht

Лог создания рипа

Exact Audio Copy V1.0 beta 3 from 29. August 2011
EAC extraction logfile from 4. December 2013, 8:36
Sol Gabetta / Shostakovich - Cello Concerto No.2; Cello Sonata
Used drive : HL-DT-STDVDRAM GSA-4083N Adapter: 1 ID: 0
Read mode : Secure
Utilize accurate stream : Yes
Defeat audio cache : Yes
Make use of C2 pointers : No
Read offset correction : 667
Overread into Lead-In and Lead-Out : No
Fill up missing offset samples with silence : Yes
Delete leading and trailing silent blocks : No
Null samples used in CRC calculations : Yes
Used interface : Native Win32 interface for Win NT & 2000
Used output format : User Defined Encoder
Selected bitrate : 896 kBit/s
Quality : High
Add ID3 tag : No
Command line compressor : C:\Program Files\Exact Audio Copy\Flac\flac.exe
Additional command line options : -V -8 %source%
TOC of the extracted CD
Track | Start | Length | Start sector | End sector
---------------------------------------------------------
1 | 0:00.00 | 15:46.41 | 0 | 70990
2 | 15:46.41 | 4:31.07 | 70991 | 91322
3 | 20:17.48 | 17:11.21 | 91323 | 168668
4 | 37:28.69 | 12:06.58 | 168669 | 223176
5 | 49:35.52 | 3:06.00 | 223177 | 237126
6 | 52:41.52 | 9:15.06 | 237127 | 278757
7 | 61:56.58 | 4:06.68 | 278758 | 297275
Range status and errors
Selected range
Filename J:\New Music\Shostakovich - Cello Concerto No.2; Cello Sonata (Sol Gabetta)\Shostakovich - Cello Concerto No.2; Cello Sonata.wav
Peak level 100.0 %
Extraction speed 2.8 X
Range quality 100.0 %
Test CRC D886C954
Copy CRC D886C954
Copy OK
No errors occurred
AccurateRip summary
Track 1 accurately ripped (confidence 6) [7BA81D01] (AR v2)
Track 2 accurately ripped (confidence 6) [20CCE29C] (AR v2)
Track 3 accurately ripped (confidence 6) [FBF01D1D] (AR v2)
Track 4 accurately ripped (confidence 6) [4CEE109A] (AR v2)
Track 5 accurately ripped (confidence 6) [523962AB] (AR v2)
Track 6 accurately ripped (confidence 6) [D0DDBA81] (AR v2)
Track 7 accurately ripped (confidence 6) [45DB240F] (AR v2)
All tracks accurately ripped
End of status report
==== Log checksum 0CF9C431EB7613BB90A01A64569FEDD01070EE2463ADFDA40BCEC7D5FF9D599B ====
[teatrix.ru].t18098.torrent 
Торрент: Зарегистрирован [ 2016-03-17 00:43 ] · E3E6EE926411EDA7F3E982AA5CA8D3B74C7E0053

Скачать .torrent

Скачать

24 KB

Статус: проверено
Скачан: 1 раз
Размер: 283 MB
terms.php



Быстрый ответ

Имя:

      
Для отправки сообщений необходимо включить JavaScript
Показать сообщения:    

Текущее время: 11-Дек 14:53

Часовой пояс: UTC + 3


Вы можете начинать темы
Вы можете отвечать на сообщения
Вы не можете редактировать свои сообщения
Вы не можете удалять свои сообщения
Вы не можете голосовать в опросах
Вы не можете прикреплять файлы к сообщениям
Вы можете скачивать файлы