Веселые ребята. Артисты и надзиратели (Ирина Голубева) [2011, документальный, кинематограф, DVB]


Статистика раздачи [Обновить пиров]
Размер:  1.21 GB   |    Зарегистрирован:  8 месяцев 24 дня   |    Скачан:  0 раз

Полного источника не было: Никогда

 
   
 
 
 

[Цитировать]

Веселые ребята
Артисты и надзиратели- Год выпуска: 2011
Страна: Россия
Жанр: документальный, кинематограф
Продолжительность: 00:51:40
Перевод: Не требуется
Русские субтитры: нет
Режиссер: Ирина ГолубеваОписание: 1932 год, СССР. После трех лет заграничной жизни из Америки, а точнее из Голливуда, в Москву возвращается молодой человек. Он хочет снимать кино не хуже американского. Из Калифорнии он привез с собой автомобиль марки "Бьюик", мечту о платиновой блондинке "а-ля Марлен Дитрих" и чертеж загородной виллы с сердечком на дверях, как у знаменитого американского актера Дугласа Фэрбенкса. Но главное — в его саквояже лежал блокнотик с записями комических трюков и сцен, которые он увидел на заокеанской фабрике грёз.
Молодой человек оказался в нужное время в нужном месте. Его звали Григорий Мормоненко, и всего через два года он станет знаменитым режиссером-орденоносцем Григорием Александровым, одним из создателей не менее знаменитой первой советской музыкальной комедии "Веселые ребята".
Документальный фильм рассказывает об истории создания этой картины, любимой многими поколениями зрителей. 25 декабря 1934 года состоялась ее премьера с Любовью Орловой и Леонидом Утесовым в главных ролях. Фильм произвел фурор и стал лидером проката. Правда, одни "веселые ребята" получили ордена и медали, другие — срок в лагерях, третьи — пулю... (анонс канала "Время")
Доп. информация: "Время: далекое и близкое"
Сэмпл: http://multi-up.com/945509
качество: DVB-S
формат: MPEG-PS (См. при проблемах с просмотром видео)
Видео: MPEG Video 2, 720x576@768x576 (4:3), 25 fps, ~3100 kbps avg, 0.299 bit/pixel
Аудио: 48 kHz, MPEG Audio 2, 2 ch, ~192.00 kbps avg

MediaInfo

Полное имя                               : H:\My Torrents\[apreder]Vesyolye_rebyata_artisty_nadzirateli(2011)DVB.mpg
Формат : MPEG-PS
Размер файла : 1,21 Гбайт
Продолжительность : 51 м.
Режим общего битрейта : Переменный
Общий поток : 3359 Кбит/сек
Видео
Идентификатор : 224 (0xE0)
Формат : MPEG Video
Версия формата : Version 2
Профиль формата : Main@Main
Параметр BVOP формата : Да
Параметр матрицы формата : Выборочная
Параметр GOP формата : M=3, N=12
Продолжительность : 51 м.
Вид битрейта : Переменный
Битрейт : 3100 Кбит/сек
Ширина : 720 пикселей
Высота : 576 пикселей
Соотношение сторон : 4:3
Частота кадров : 25,000 кадров/сек
Стандарт вещания : PAL
Цветовое пространство : YUV
Субдискретизация насыщенности : 4:2:0
Битовая глубина : 8 бит
Тип развёртки : Чересстрочная
Порядок развёртки : Верхнее поле первое
Метод сжатия : С потерями
Бит/(Пиксели*Кадры) : 0.299
Временной код первого кадра : 00:00:00:00
Оригинал временного кода : Group of pictures header
Размер потока : 1,12 Гбайт (92%)
Аудио
Идентификатор : 192 (0xC0)
Формат : MPEG Audio
Версия формата : Version 1
Профиль формата : Layer 2
Продолжительность : 51 м.
Вид битрейта : Постоянный
Битрейт : 192 Кбит/сек
Каналы : 2 канала
Частота : 48,0 КГц
Метод сжатия : С потерями
Размер потока : 71,0 Мбайт (6%)

Скриншоты


Резервные скриншоты


-1'156/1'137√[-4]
[teatrix.ru].t18100.torrent 
Торрент: Зарегистрирован [ 2016-03-17 00:43 ] · 7BF3DB8F6E42856B07E2AD8636B5296B7E56D79B

Скачать .torrent

Скачать

13 KB

Статус: проверено
Скачан: 0 раз
Размер: 1.21 GB
terms.php



Показать сообщения:    

Текущее время: 10-Дек 13:48

Часовой пояс: UTC + 3


Вы не можете начинать темы
Вы не можете отвечать на сообщения
Вы не можете редактировать свои сообщения
Вы не можете удалять свои сообщения
Вы не можете голосовать в опросах
Вы не можете прикреплять файлы к сообщениям
Вы можете скачивать файлы