(Classical Crossover, Easy Listening) Raymond Lefevre et son grand orchestre - Concerto {Japan CD} - 1983, FLAC (image+.cue), lossless


 

[Цитировать]

Raymond Lefèvre et son grand orchestre - Concerto
Год выпуска диска : 1983
Производитель диска : Япония
Аудио кодек : FLAC
Тип рипа : image+.cue (Test & Copy)
Битрейт аудио : lossless
Продолжительность : 01:01:50
Лейбл : Barclay
Каталожный номер : 3122-23 (35LO)
Источник (релизер): Рип оригинального диска из личной коллекции
Сканы: прилагаются


01. Toccata et Fugue en Re Mineur (Bach)
02. Elvira Madigan (Mozart)
03. Concerto en La Mineur (Vivaldi)
04. Petite musique de la nuit (Mozart)
05. L'automne du 'Les quatre saisons' (Vivaldi)
06. Capriccio rhapsodie (Paganini)
07. Prelude en mi mineur (Chopin)
08. Le printemps du 'Les quatre saisons' (Vivaldi)
09. L'ete du 'Les quatre saisons' (Vivaldi)
10. Adagio d'Albinoni (Giazotto)
11. Symphonie inachevee (Schubert)
12. Le matin (Peer Gynt) (Grieg)
13. Sicilienne (Bach)
14. Concerto No. 20 en Re Mineur (Mozart)
15. Concerto en Mi Majeur (Bach)-

Лог создания рипа

Exact Audio Copy V1.0 beta 3 from 29. August 2011
EAC extraction logfile from 29. January 2014, 17:29
Raymond Lefevre / Concerto
Used drive : TSSTcorpCDDVDW TS-L633C Adapter: 2 ID: 0
Read mode : Secure
Utilize accurate stream : Yes
Defeat audio cache : Yes
Make use of C2 pointers : No
Read offset correction : 6
Overread into Lead-In and Lead-Out : No
Fill up missing offset samples with silence : Yes
Delete leading and trailing silent blocks : No
Null samples used in CRC calculations : Yes
Used interface : Native Win32 interface for Win NT & 2000
Used output format : Internal WAV Routines
Sample format : 44.100 Hz; 16 Bit; Stereo
TOC of the extracted CD
Track | Start | Length | Start sector | End sector
---------------------------------------------------------
1 | 0:00.00 | 4:01.27 | 0 | 18101
2 | 4:01.27 | 3:58.63 | 18102 | 36014
3 | 8:00.15 | 3:45.17 | 36015 | 52906
4 | 11:45.32 | 4:27.58 | 52907 | 72989
5 | 16:13.15 | 2:49.65 | 72990 | 85729
6 | 19:03.05 | 4:36.05 | 85730 | 106434
7 | 23:39.10 | 3:27.25 | 106435 | 121984
8 | 27:06.35 | 3:16.62 | 121985 | 136746
9 | 30:23.22 | 3:24.60 | 136747 | 152106
10 | 33:48.07 | 4:53.20 | 152107 | 174101
11 | 38:41.27 | 5:59.43 | 174102 | 201069
12 | 44:40.70 | 3:07.35 | 201070 | 215129
13 | 47:48.30 | 2:23.72 | 215130 | 225926
14 | 50:12.27 | 6:02.55 | 225927 | 253131
15 | 56:15.07 | 5:35.33 | 253132 | 278289
Range status and errors
Selected range
Filename C:\Users\user\Desktop\Raymond Lefevre - Concerto (Barclay 3122-23).wav
Peak level 100.0 %
Extraction speed 4.1 X
Range quality 100.0 %
Test CRC 97D1FE9C
Copy CRC 97D1FE9C
Copy OK
No errors occurred
AccurateRip summary
Track 1 not present in database
Track 2 not present in database
Track 3 not present in database
Track 4 not present in database
Track 5 not present in database
Track 6 not present in database
Track 7 not present in database
Track 8 not present in database
Track 9 not present in database
Track 10 not present in database
Track 11 not present in database
Track 12 not present in database
Track 13 not present in database
Track 14 not present in database
Track 15 not present in database
None of the tracks are present in the AccurateRip database
End of status report
---- CUETools DB Plugin V2.1.4
[CTDB TOCID: ZMYDocVxQp8fHgAEInMOpPAATlY-] found
Submit result: ZMYDocVxQp8fHgAEInMOpPAATlY- has been confirmed
Track | CTDB Status
1 | (1/1) Accurately ripped
2 | (1/1) Accurately ripped
3 | (1/1) Accurately ripped
4 | (1/1) Accurately ripped
5 | (1/1) Accurately ripped
6 | (1/1) Accurately ripped
7 | (1/1) Accurately ripped
8 | (1/1) Accurately ripped
9 | (1/1) Accurately ripped
10 | (1/1) Accurately ripped
11 | (1/1) Accurately ripped
12 | (1/1) Accurately ripped
13 | (1/1) Accurately ripped
14 | (1/1) Accurately ripped
15 | (1/1) Accurately ripped
==== Log checksum F0958752ABEDF5192E14AE0F834C16E3B12C81973D8EF3B7561F72D01227E500 ====

Содержание индексной карты (.CUE)

REM GENRE Classical
REM DATE 1983
REM DISCID BE0E7E0F
REM COMMENT "ExactAudioCopy v1.0b3"
PERFORMER "Raymond Lefevre"
TITLE "Concerto"
FILE "Raymond Lefevre - Concerto (Barclay 3122-23).flac" WAVE
TRACK 01 AUDIO
TITLE "Toccata et Fugue en Re Mineur"
PERFORMER "Raymond Lefevre"
INDEX 01 00:00:00
TRACK 02 AUDIO
TITLE "Elvira Madigan"
PERFORMER "Raymond Lefevre"
INDEX 00 03:57:57
INDEX 01 04:01:27
TRACK 03 AUDIO
TITLE "Concerto en La Mineur"
PERFORMER "Raymond Lefevre"
INDEX 00 07:56:50
INDEX 01 08:00:15
TRACK 04 AUDIO
TITLE "Petite musique de la nuit"
PERFORMER "Raymond Lefevre"
INDEX 00 11:41:60
INDEX 01 11:45:32
TRACK 05 AUDIO
TITLE "L'automne du 'Les quatre saisons'"
PERFORMER "Raymond Lefevre"
INDEX 00 16:09:37
INDEX 01 16:13:15
TRACK 06 AUDIO
TITLE "Capriccio rhapsodie"
PERFORMER "Raymond Lefevre"
INDEX 00 18:59:35
INDEX 01 19:03:05
TRACK 07 AUDIO
TITLE "Prelude en mi mineur"
PERFORMER "Raymond Lefevre"
INDEX 00 23:35:40
INDEX 01 23:39:10
TRACK 08 AUDIO
TITLE "Le printemps du 'Les quatre saisons'"
PERFORMER "Raymond Lefevre"
INDEX 00 27:02:70
INDEX 01 27:06:35
TRACK 09 AUDIO
TITLE "L'ete du 'Les quatre saisons'"
PERFORMER "Raymond Lefevre"
INDEX 00 30:19:47
INDEX 01 30:23:22
TRACK 10 AUDIO
TITLE "Adagio d'Albinoni"
PERFORMER "Raymond Lefevre"
INDEX 00 33:44:35
INDEX 01 33:48:07
TRACK 11 AUDIO
TITLE "Symphonie inachevee"
PERFORMER "Raymond Lefevre"
INDEX 00 38:37:57
INDEX 01 38:41:27
TRACK 12 AUDIO
TITLE "Le matin (Peer Gynt)"
PERFORMER "Raymond Lefevre"
INDEX 00 44:37:30
INDEX 01 44:40:70
TRACK 13 AUDIO
TITLE "Sicilienne"
PERFORMER "Raymond Lefevre"
INDEX 00 47:44:55
INDEX 01 47:48:30
TRACK 14 AUDIO
TITLE "Concerto No. 20 en Re Mineur"
PERFORMER "Raymond Lefevre"
INDEX 00 50:08:57
INDEX 01 50:12:27
TRACK 15 AUDIO
TITLE "Concerto en Mi Majeur"
PERFORMER "Raymond Lefevre"
INDEX 00 56:11:30
INDEX 01 56:15:07

foo_dr

foobar2000 1.2.6 / Замер динамического диапазона (DR) 1.1.1
Дата отчёта: 2014-01-29 18:04:23
--------------------------------------------------------------------------------
Анализ: Raymond Lefevre / Concerto
--------------------------------------------------------------------------------
DR Пики RMS Продолжительность трека
--------------------------------------------------------------------------------
DR12 0.00 дб -14.51 дб 4:01 01-Toccata et Fugue en Re Mineur
DR13 -1.12 дб -16.85 дб 3:59 02-Elvira Madigan
DR13 0.00 дб -15.25 дб 3:45 03-Concerto en La Mineur
DR13 0.00 дб -16.35 дб 4:28 04-Petite musique de la nuit
DR10 -3.82 дб -18.08 дб 2:50 05-L'automne du 'Les quatre saisons'
DR14 0.00 дб -15.96 дб 4:36 06-Capriccio rhapsodie
DR12 -1.04 дб -16.94 дб 3:27 07-Prelude en mi mineur
DR12 -0.36 дб -17.02 дб 3:17 08-Le printemps du 'Les quatre saisons'
DR13 0.00 дб -15.85 дб 3:25 09-L'ete du 'Les quatre saisons'
DR15 -1.55 дб -19.13 дб 4:53 10-Adagio d'Albinoni
DR13 0.00 дб -17.16 дб 6:00 11-Symphonie inachevee
DR12 -1.81 дб -18.79 дб 3:07 12-Le matin (Peer Gynt)
DR10 -1.08 дб -16.43 дб 2:24 13-Sicilienne
DR13 0.00 дб -17.10 дб 6:03 14-Concerto No. 20 en Re Mineur
DR14 0.00 дб -16.69 дб 5:35 15-Concerto en Mi Majeur
--------------------------------------------------------------------------------
Количество треков: 15
Реальные значения DR: DR13
Частота: 44100 Гц
Каналов: 2
Бит на сэмпл: 16
Битрейт: 745 кбит/с
Кодек: FLAC
================================================================================
-



Показать сообщения:    

Текущее время: 06-Дек 19:04

Часовой пояс: UTC + 3


Вы не можете начинать темы
Вы не можете отвечать на сообщения
Вы не можете редактировать свои сообщения
Вы не можете удалять свои сообщения
Вы не можете голосовать в опросах
Вы не можете прикреплять файлы к сообщениям
Вы не можете скачивать файлы