(Classical) Beethoven - Violin concerto in D, op. 61, Kreisler - showpieces (David Garrett, Ion Marin, Royal Philharmonic Orchestra) "Legacy" - 2011, FLAC (image+.cue) lossless


Статистика раздачи [Обновить пиров]
Размер:  314 MB   |    Зарегистрирован:  8 месяцев 25 дней   |    Скачан:  0 раз

Полного источника не было: Никогда

 
   
 
 
 

[Цитировать]

David Garrett
Legacy

Жанр: Classical
Страна-производитель диска: USA
Год издания диска: 2011
Издатель (лейбл): Music Media
Номер по каталогу: B0016841-02
Дата записи: 2011
Аудиокодек: FLAC
Тип рипа: image+.cue
Битрейт аудио: lossless
Продолжительность: 1'14'24
Источник: собственный рип
Наличие сканов в содержимом раздачи: да
Треклист:
Ludwig van Beethoven
Concerto for Violin and Orchestra in D, op. 61
1. Allegro ma non troppo 25'05
2. Larghetto 9'39
3. Rondo (Allegro) 10'05
Fritz Kreisler
4. Praeludium and Allegro in the style of Pugnuni 06'16
(arr. F. Van der Heijden/D. Garrett)
5. Variation 18 from Rhapsody on a Theme of Paganini for Piano and Orchestra, Op. 43 by Sergei Rachmaninof 3'18
(arr. F. Van der Heijden/D. Garrett)
6. Caprice Viennois, Op. 2 4'32
(arr. F. Van der Heijden/D. Garrett)
7. Variation on a theme of Corelli in the style of Tartini 3'40
(arr. F. Van der Heijden/D. Garrett)
8. Romance: Larghetto on a theme by Carl Maria von Weber 3'23
(arr. F. Van der Heijden/D. Garrett)
9. Tambourin Chinois, Op. 3 4'02
(arr. F. Van der Heijden/D. Garrett)
10. Liebesleid 4'34
(arr. F. Van der Heijden/D. Garrett)
Исполнители:
David Garrett violin
Ion Marin conductor
Royal Philharmonic Orchestra

Лог создания рипа

Exact Audio Copy V1.0 beta 1 from 15. November 2010
EAC extraction logfile from 29. January 2014, 11:19
David Garrett / Legacy
Used drive : HL-DT-STDVDRAM GP08NU6B Adapter: 1 ID: 0
Read mode : Secure
Utilize accurate stream : Yes
Defeat audio cache : Yes
Make use of C2 pointers : No
Read offset correction : 103
Overread into Lead-In and Lead-Out : No
Fill up missing offset samples with silence : Yes
Delete leading and trailing silent blocks : No
Null samples used in CRC calculations : Yes
Used interface : Native Win32 interface for Win NT & 2000
Used output format : Пользовательский кодировщик
Selected bitrate : 768 kBit/s
Quality : High
Add ID3 tag : No
Command line compressor : C:\Program Files\Exact Audio Copy\FLAC\FLAC.EXE
Additional command line options : -8 -V -T "ARTIST=%a" -T "TITLE=%t" -T "ALBUM=%g" -T "DATE=%y" -T "TRACKNUMBER=%n" -T "GENRE=%m" -T "COMMENT=%e" %j--picture="%i"%j %s -o %d
TOC of the extracted CD
Track | Start | Length | Start sector | End sector
---------------------------------------------------------
1 | 0:00.00 | 25:05.24 | 0 | 112898
2 | 25:05.24 | 9:39.40 | 112899 | 156363
3 | 34:44.64 | 10:07.40 | 156364 | 201928
4 | 44:52.29 | 6:11.61 | 201929 | 229814
5 | 51:04.15 | 3:08.13 | 229815 | 243927
6 | 54:12.28 | 4:31.67 | 243928 | 264319
7 | 58:44.20 | 3:39.69 | 264320 | 280813
8 | 62:24.14 | 3:22.70 | 280814 | 296033
9 | 65:47.09 | 4:02.00 | 296034 | 314183
10 | 69:49.09 | 4:37.30 | 314184 | 334988
Range status and errors
Selected range
Filename D:\My musica\David Garrett - Legacy\David Garrett - Legacy.wav
Peak level 99.9 %
Extraction speed 0.1 X
Range quality 100.0 %
Test CRC F172E1AB
Copy CRC F172E1AB
Copy OK
No errors occurred
AccurateRip summary
Track 1 accurately ripped (confidence 62) [9CEFEDBB]
Track 2 accurately ripped (confidence 62) [FB0899B0]
Track 3 accurately ripped (confidence 61) [6C5D764B]
Track 4 accurately ripped (confidence 62) [B474B2B6]
Track 5 accurately ripped (confidence 61) [72A30DAA]
Track 6 accurately ripped (confidence 61) [E7F5E9DB]
Track 7 accurately ripped (confidence 61) [364C983F]
Track 8 accurately ripped (confidence 61) [022E9CE2]
Track 9 accurately ripped (confidence 61) [E8A9CDDD]
Track 10 accurately ripped (confidence 60) [3D78E88C]
All tracks accurately ripped
End of status report
[teatrix.ru].t18103.torrent 
Торрент: Зарегистрирован [ 2016-03-17 00:43 ] · CADA72DD81C354BDD56574C013090518A2A5355A

Скачать .torrent

Скачать

13 KB

Статус: проверено
Скачан: 0 раз
Размер: 314 MB
terms.php



Быстрый ответ

Имя:

      
Для отправки сообщений необходимо включить JavaScript
Показать сообщения:    

Текущее время: 11-Дек 03:21

Часовой пояс: UTC + 3


Вы можете начинать темы
Вы можете отвечать на сообщения
Вы не можете редактировать свои сообщения
Вы не можете удалять свои сообщения
Вы не можете голосовать в опросах
Вы не можете прикреплять файлы к сообщениям
Вы можете скачивать файлы