(Classical) Штафенгаген (орк. Линк) – Фортепианный концерт № 2; Три песни с оркестром / Stavenhagen (orch. Link) – Piano Concerto No. 2; three songs with orchestra (Pfeiffer, Spatzek; Lehmann; Forster) - 1993?, FLAC (image+.cue) lossless


Статистика раздачи [Обновить пиров]
Размер:  206 MB   |    Зарегистрирован:  8 месяцев 17 дней   |    Скачан:  0 раз

Полного источника не было: Никогда

 
   
 
 
 

[Цитировать]

Штафенгаген (орк. Линк) – Фортепианный концерт № 2; Три песни с оркестром / Stavenhagen (orch. Link) – Piano Concerto No. 2; three songs with orchestra (Pfeiffer, Spatzek; Lehmann; Förster)
Жанр: Classical
Год издания диска: 1993?
Издатель (лейбл): ebs
Номер по каталогу: 6079
Дата записи: 1 — 3 июля 1992 г., Грейц.
Аудиокодек: FLAC
Тип рипа: image+.cue
Битрейт аудио: lossless
Продолжительность: 00:52:08
Источник: odeonmusic
Наличие сканов в содержимом раздачи: да
Треклист:
Бернгард Штафенгаген (1862 — 1814).
Фортепианный концерт № 2 A-dur (1912 [?]; оркестровка реконструирована Иоахимом-Дитрихом Линком).
01. I. Moderato. — [12:18].
02. II. Andante [07:22].
03. III. Scherzo. Allegro [09:28].
04. IV. Finale. Allegro comodo [13:54].
Пять песен для голоса с фортепиано (опубл. 1893).
(Оркестрованная версия Иоахима-Дитриха Линка.)
05. № 5. Песня девушки (Mädchenlied; Бруно Ээльбо) [04:10].
06. № 4. Серенада (Ständchen; Пауль И. Л. фон Гейзе) [02:07].
07. № 1. Тяжелый вечер (Der Schwere Abend; Николаус Ленау) [03:30].
Исполнители:
Thomas Pfeiffer (баритон, 6, 7).
Helga Spatzek (сопрано, 5).
Volkmar Lehmann (фортепиано, 1 — 4).
Vogtlandphilharmonie.
Дирижер Hans-Rainer Förster.

Лог создания рипа

Exact Audio Copy V1.0 beta 3 from 29. August 2011
EAC extraction logfile from 15. October 2013, 8:38
Hans-Rainer Förster / Stavenhagen - Piano Concerto No.2 - Volkmar Lehmann
Used drive : TSSTcorpCDDVDW SH-222BB Adapter: 2 ID: 1
Read mode : Secure
Utilize accurate stream : Yes
Defeat audio cache : Yes
Make use of C2 pointers : No
Read offset correction : 6
Overread into Lead-In and Lead-Out : No
Fill up missing offset samples with silence : Yes
Delete leading and trailing silent blocks : No
Null samples used in CRC calculations : Yes
Used interface : Native Win32 interface for Win NT & 2000
Used output format : User Defined Encoder
Selected bitrate : 1024 kBit/s
Quality : High
Add ID3 tag : No
Command line compressor : C:\Program Files\Exact Audio Copy\Flac\flac.exe
Additional command line options : -8 -V -T "TITLE=%title%" -T "ARTIST=%artist%" -T "ALBUMARTIST=%albumartist%" -T "ALBUM=%albumtitle%" -T "DATE=%year%" -T "TRACKNUMBER=%tracknr%" -T "TRACKTOTAL=%numtracks%" -T "GENRE=%genre%" -T "COMMENT=%comment%" -T "PERFORMER=%albuminterpret%" -T "COMPOSER=%composer%" %source% -o %dest%
TOC of the extracted CD
Track | Start | Length | Start sector | End sector
---------------------------------------------------------
1 | 0:00.00 | 12:00.65 | 0 | 54064
2 | 12:00.65 | 7:23.32 | 54065 | 87321
3 | 19:24.22 | 9:30.15 | 87322 | 130086
4 | 28:54.37 | 13:24.15 | 130087 | 190401
5 | 42:18.52 | 4:11.00 | 190402 | 209226
6 | 46:29.52 | 2:07.45 | 209227 | 218796
7 | 48:37.22 | 3:30.48 | 218797 | 234594
Range status and errors
Selected range
Filename G:\Ripped general\[8444] Stavenhagen – Piano Concerto No.2 – Volkmar Lehmann\Stavenhagen - Piano Concerto No.2 - Volkmar Lehmann.wav
Peak level 100.0 %
Extraction speed 6.8 X
Range quality 100.0 %
Test CRC 3449C84A
Copy CRC 3449C84A
Copy OK
No errors occurred
AccurateRip summary
Track 1 not present in database
Track 2 not present in database
Track 3 not present in database
Track 4 not present in database
Track 5 not present in database
Track 6 not present in database
Track 7 not present in database
None of the tracks are present in the AccurateRip database
End of status report

Содержание индексной карты (.CUE)

REM GENRE Classical
REM DISCID 5F0C3707
REM COMMENT "ExactAudioCopy v1.0b3"
PERFORMER "Hans-Rainer Foerster"
TITLE "Stavenhagen – Piano Concerto No. 2 – Volkmar Lehmann"
FILE "Stavenhagen – Piano Concerto No. 2 – Volkmar Lehmann.flac" WAVE
TRACK 01 AUDIO
TITLE "Piano Concerto No. 2 in A major - I. Moderato"
PERFORMER "Hans-Rainer Foerster"
INDEX 01 00:00:00
TRACK 02 AUDIO
TITLE "Piano Concerto No. 2 in A major - II. Andante"
PERFORMER "Hans-Rainer Foerster"
INDEX 01 12:00:65
TRACK 03 AUDIO
TITLE "Piano Concerto No. 2 in A major - III. Scherzo. Allegro"
PERFORMER "Hans-Rainer Foerster"
INDEX 00 19:21:37
INDEX 01 19:24:22
TRACK 04 AUDIO
TITLE "Piano Concerto No. 2 in A major - IV. Finale. Allegro comodo"
PERFORMER "Hans-Rainer Foerster"
INDEX 00 28:53:35
INDEX 01 28:54:37
TRACK 05 AUDIO
TITLE "Drei Orchesterlieder - No. 1. Maedchenlied (Bruno Eelbo)"
PERFORMER "Hans-Rainer Foerster"
INDEX 00 42:09:50
INDEX 01 42:18:52
TRACK 06 AUDIO
TITLE "Drei Orchesterlieder - No. 2. Staendchen (Paul Heyse)"
PERFORMER "Hans-Rainer Foerster"
INDEX 00 46:25:22
INDEX 01 46:29:52
TRACK 07 AUDIO
TITLE "Drei Orchesterlieder - No. 3. Der Schwere Abend (Nicolaus Lenau)"
PERFORMER "Hans-Rainer Foerster"
INDEX 00 48:34:40
INDEX 01 48:37:22
[teatrix.ru].t18104.torrent 
Торрент: Зарегистрирован [ 2016-03-17 00:43 ] · 44A9F82AEF56B5B3A2C042608E6C333219EBC4BD

Скачать .torrent

Скачать

17 KB

Статус: проверено
Скачан: 0 раз
Размер: 206 MB
terms.php



Быстрый ответ

Имя:

      
Для отправки сообщений необходимо включить JavaScript
Показать сообщения:    

Текущее время: 03-Дек 03:20

Часовой пояс: UTC + 3


Вы можете начинать темы
Вы можете отвечать на сообщения
Вы не можете редактировать свои сообщения
Вы не можете удалять свои сообщения
Вы не можете голосовать в опросах
Вы не можете прикреплять файлы к сообщениям
Вы можете скачивать файлы