(Classical) Giovanni Battista Martini - Sacred Vocal Music; Organ & Harpsichord Sonatas - Norbert Duchtel, Oscar Milani, Freiburger Domkapelle - 2009, FLAC (image+.cue) lossless


Статистика раздачи [Обновить пиров]
Размер:  326 MB   |    Зарегистрирован:  10 месяцев 3 дня   |    Скачан:  0 раз

Полного источника не было: Никогда

 
   
 
 
 

[Цитировать]

Giovanni Battista Martini - Sacred Vocal Music; Organ & Harpsichord Sonatas - Norbert Düchtel, Oscar Milani, Freiburger Domkapelle
Жанр: Classical
Страна-производитель диска: Germany
Год издания диска: 2009
Издатель (лейбл): Ars Musici
Дата записи: 2002, 2003
Аудиокодек: FLAC
Тип рипа: image+.cue
Битрейт аудио: lossless
Продолжительность: 64:25
Источник: собственный рип
Наличие сканов в содержимом раздачи: да
Треклист:
Giovanni Battista Martini (1706-1784)
[1] Toccata I (Vivace)
[2] 'Beatus vir' (Psalm 111)
[3] 'Cantate Domino'
[4]-[6] Sonata Prima per il Cembalo
[7]-[8] Sonata Seconda per l'Organo
[9]-[11] Sonata Terza per il Cembalo
[12]-[13] Sonata Quarta per l'Organo
[14]-[16] Sonata Quinta per il Cembalo
[17]-[18] Sonata Sesta per l'Organo
[19] 'Os justi'
[20] Sonata al 'post-communio' sui Flauti - Introduzione (Moderato) - Allegro
[21] Sonata sui Flauti II
[22] 'Mihi autem'
[23] Toccata III (Allegro moderato)
[24] Toccata per il 'Deo Gratias' (Allegro)
Исполнители:
Norbert Düchtel organ
Oscar Milani harpsichord
Freiburger Domkapelle
Boris Böhmann
director

Лог создания рипа

Exact Audio Copy V1.0 beta 3 from 29. August 2011
EAC extraction logfile from 6. November 2013, 10:05
Freiburger Domkapelle, Boris Böhmann / Martini - Sacred Vocal Music; Organ & Harpsichord Sonatas
Used drive : HL-DT-STDVDRRW GWA-4164B Adapter: 5 ID: 0
Read mode : Secure
Utilize accurate stream : Yes
Defeat audio cache : Yes
Make use of C2 pointers : No
Read offset correction : 102
Overread into Lead-In and Lead-Out : No
Fill up missing offset samples with silence : Yes
Delete leading and trailing silent blocks : No
Null samples used in CRC calculations : Yes
Used interface : Native Win32 interface for Win NT & 2000
Used output format : User Defined Encoder
Selected bitrate : 896 kBit/s
Quality : High
Add ID3 tag : No
Command line compressor : C:\Program Files\Exact Audio Copy\FLAC\FLAC.EXE
Additional command line options : -V -8 %source%
TOC of the extracted CD
Track | Start | Length | Start sector | End sector
---------------------------------------------------------
1 | 0:00.00 | 1:30.71 | 0 | 6820
2 | 1:30.71 | 4:06.04 | 6821 | 25274
3 | 5:37.00 | 3:02.29 | 25275 | 38953
4 | 8:39.29 | 1:42.73 | 38954 | 46676
5 | 10:22.27 | 4:21.54 | 46677 | 66305
6 | 14:44.06 | 2:29.55 | 66306 | 77535
7 | 17:13.61 | 2:38.03 | 77536 | 89388
8 | 19:51.64 | 2:53.45 | 89389 | 102408
9 | 22:45.34 | 5:42.11 | 102409 | 128069
10 | 28:27.45 | 1:15.31 | 128070 | 133725
11 | 29:43.01 | 1:49.42 | 133726 | 141942
12 | 31:32.43 | 3:57.49 | 141943 | 159766
13 | 35:30.17 | 1:57.04 | 159767 | 168545
14 | 37:27.21 | 3:40.29 | 168546 | 185074
15 | 41:07.50 | 2:51.69 | 185075 | 197968
16 | 43:59.44 | 1:43.64 | 197969 | 205757
17 | 45:43.33 | 3:03.21 | 205758 | 219503
18 | 48:46.54 | 2:00.59 | 219504 | 228562
19 | 50:47.38 | 1:25.73 | 228563 | 235010
20 | 52:13.36 | 3:28.25 | 235011 | 250635
21 | 55:41.61 | 2:30.64 | 250636 | 261949
22 | 58:12.50 | 1:34.08 | 261950 | 269007
23 | 59:46.58 | 1:29.65 | 269008 | 275747
24 | 61:16.48 | 2:36.57 | 275748 | 287504
Range status and errors
Selected range
Filename D:\temp\Music\Martini - Sacred Vocal Music; Organ & Harpsichord Sonatas\Martini - Sacred Vocal Music; Organ & Harpsichord Sonatas.wav
Peak level 97.0 %
Extraction speed 2.7 X
Range quality 100.0 %
Test CRC AE31E088
Copy CRC AE31E088
Copy OK
No errors occurred
AccurateRip summary
Track 1 not present in database
Track 2 not present in database
Track 3 not present in database
Track 4 not present in database
Track 5 not present in database
Track 6 not present in database
Track 7 not present in database
Track 8 not present in database
Track 9 not present in database
Track 10 not present in database
Track 11 not present in database
Track 12 not present in database
Track 13 not present in database
Track 14 not present in database
Track 15 not present in database
Track 16 not present in database
Track 17 not present in database
Track 18 not present in database
Track 19 not present in database
Track 20 not present in database
Track 21 not present in database
Track 22 not present in database
Track 23 not present in database
Track 24 not present in database
None of the tracks are present in the AccurateRip database
End of status report
==== Log checksum 28CD36A9D638778702199CB4D8F5EC5938C894394BBED4FF6938428037D2746F ====
[teatrix.ru].t18105.torrent 
Торрент: Зарегистрирован [ 2016-03-17 00:43 ] · 3705DD3675826F194FDF9D37B05E1D7CE652FE34

Скачать .torrent

Скачать

28 KB

Статус: проверено
Скачан: 0 раз
Размер: 326 MB
terms.php



Быстрый ответ

Имя:

      
Для отправки сообщений необходимо включить JavaScript
Показать сообщения:    

Текущее время: 20-Янв 14:59

Часовой пояс: UTC + 3


Вы можете начинать темы
Вы можете отвечать на сообщения
Вы не можете редактировать свои сообщения
Вы не можете удалять свои сообщения
Вы не можете голосовать в опросах
Вы не можете прикреплять файлы к сообщениям
Вы можете скачивать файлы