(Classical / Piano Concerto) Robert Schumann - Klavierkonzert • Konzertstuck (Introduction und Allegro appassionato), Op. 92 • Concert-Allegro mit Introduction, Op. 134 (Murray Perahia, Claudio Abbado, 1994/1997) - 1997, FLAC (image+.cue) lossless


Статистика раздачи [Обновить пиров]
Размер:  225 MB   |    Зарегистрирован:  8 месяцев 19 дней   |    Скачан:  1 раз

Полного источника не было: 27 дней

 
   
 
 
 

[Цитировать]

Robert Schumann | Роберт Шуманн
(1810–1856)



Konzert für Klavier und Orchester | Concert-Allegro mit Introduction
Konzertstück (Introduction und Allegro appassionato)



Murray Perahia piano
Berliner Philharmoniker
Claudio Abbado conductor


Жанр: Classical / Piano Concerto
Даты и место записи: Philharmonie, Berlin, 1994/1997
Формат записи: DDD, Stereo
Год издания диска: 1997
Издатель (лейбл): Sony
Номер по каталогу: SK 64577
Аудиокодек: FLAC
Тип рипа: image+.cue
Битрейт аудио: lossless
Продолжительность: 57:21
Наличие сканов в содержимом раздачи: да
Источник: блог OdeonMusic


Tracklist / Треклист
Klavierkonzert a-moll, Op. 54 - 30:18
I. Allegro affettuoso - 14:53
  • II. Intermezzo: Andantino grazioso - 5:09
  • III. Allegro vivace - 10:16
    Recorded: Philharmonie, Berlin, 27–31 December 1994
    Konzertstück (Introduction und Allegro appassionato) G-dur, Op. 92 - 14:18
  • Concert-Allegro mit Introduction d-moll, Op. 134 - 12:45
    Recorded: Philharmonie, Berlin, 15–16 February 1997

    -

    EAC log / Отчёт EAC

    Exact Audio Copy V1.0 beta 3 from 29. August 2011
    EAC extraction logfile from 23. January 2014, 18:55
    Murray Perahia / Schumann - Complete works for Piano and Orchestra - Perahia, Abbado
    Used drive : TSSTcorpCDDVDW SH-222BB Adapter: 2 ID: 1
    Read mode : Secure
    Utilize accurate stream : Yes
    Defeat audio cache : Yes
    Make use of C2 pointers : No
    Read offset correction : 6
    Overread into Lead-In and Lead-Out : No
    Fill up missing offset samples with silence : Yes
    Delete leading and trailing silent blocks : No
    Null samples used in CRC calculations : Yes
    Used interface : Native Win32 interface for Win NT & 2000
    Used output format : User Defined Encoder
    Selected bitrate : 1024 kBit/s
    Quality : High
    Add ID3 tag : No
    Command line compressor : C:\Program Files\Exact Audio Copy\Flac\flac.exe
    Additional command line options : -8 -V -T "TITLE=%title%" -T "ARTIST=%artist%" -T "ALBUMARTIST=%albumartist%" -T "ALBUM=%albumtitle%" -T "DATE=%year%" -T "TRACKNUMBER=%tracknr%" -T "TRACKTOTAL=%numtracks%" -T "GENRE=%genre%" -T "COMMENT=%comment%" -T "PERFORMER=%albuminterpret%" -T "COMPOSER=%composer%" %source% -o %dest%
    TOC of the extracted CD
    Track | Start | Length | Start sector | End sector
    ---------------------------------------------------------
    1 | 0:00.00 | 14:52.45 | 0 | 66944
    2 | 14:52.45 | 5:08.47 | 66945 | 90091
    3 | 20:01.17 | 10:16.35 | 90092 | 136326
    4 | 30:17.52 | 14:17.73 | 136327 | 200674
    5 | 44:35.50 | 12:44.72 | 200675 | 258046
    Range status and errors
    Selected range
    Filename G:\Ripped general\[2781] Schumann – Complete works for Piano and Orchestra – Perahia, Abbado\Schumann - Complete works for Piano and Orchestra - Perahia, Abbado.wav
    Peak level 99.9 %
    Extraction speed 7.0 X
    Range quality 100.0 %
    Test CRC 8DFE3DD7
    Copy CRC 8DFE3DD7
    Copy OK
    No errors occurred
    AccurateRip summary
    Track 1 accurately ripped (confidence 2) [B82F315E] (AR v1)
    Track 2 accurately ripped (confidence 2) [028953F4] (AR v1)
    Track 3 accurately ripped (confidence 2) [FDF3DE0E] (AR v1)
    Track 4 accurately ripped (confidence 2) [B4DB0E6F] (AR v1)
    Track 5 accurately ripped (confidence 2) [029F3F81] (AR v1)
    All tracks accurately ripped
    End of status report

    auCDtect Task Manager log / Отчёт auCDtect Task Manager

    -----------------------
    DON'T MODIFY THIS FILE
    -----------------------
    PERFORMER: auCDtect Task Manager, ver. 1.5.1RC3 build 1.5.1.4
    Copyright (c) 2008-2010 y-soft. All rights reserved
    ANALYZER: auCDtect: CD records authenticity detector, version 0.8.2
    Copyright (c) 2004 Oleg Berngardt. All rights reserved.
    Copyright (c) 2004 Alexander Djourik. All rights reserved.
    FILE: Schumann. Werke fuer Klavier und Orchester (Perahia, Abbado).flac
    Size: 224071141 Hash: 6008BF7A117D94A3B262F87B23E69750 Accuracy: -m0
    Conclusion: ???
    Signature: 751FB618E4534A5A55D94005A14315A0F5542C9D

    Спектр

    CUETools log / Отчёт CUETools

    [CUETools log; Date: 31.01.2014 14:37:29; Version: 2.1.4]
    [AccurateRip ID: 000b79d6-00356c4c-460d7005] found.
    Track [ CRC | V2 ] Status
    01 [b82f315e|9ba09070] (02+00/61) Accurately ripped
    02 [028953f4|cd15cc47] (02+00/62) Accurately ripped
    03 [fdf3de0e|cf1c9c2d] (02+00/62) Accurately ripped
    04 [b4db0e6f|36297bc4] (02+00/62) Accurately ripped
    05 [029f3f81|6abcf121] (02+00/61) Accurately ripped
    Track Peak [ CRC32 ] [W/O NULL] [ LOG ]
    -- 99,9 [8DFE3DD7] [8AEE0A4F] CRC32
    01 99,9 [80E1EEA9] [5C19ED4C]
    02 28,5 [BDE1F844] [41A69564]
    03 94,6 [8136F6E9] [B65131DD]
    04 89,3 [4FB69CE7] [02F760D6]
    05 85,3 [83AAC5A3] [33338B70]

    CUE sheet

    TITLE "Robert Schumann: Werke für Klavier und Orchester"
    PERFORMER "Murray Perahia"
    REM GENRE Classical
    REM DISCID 460D7005
    REM COMMENT "ExactAudioCopy v1.0b3"
    FILE "Schumann. Werke fuer Klavier und Orchester (Perahia, Abbado).flac" WAVE
    TRACK 01 AUDIO
    TITLE "Klavierkonzert a-moll, Op. 54: I. Allegro affettuoso"
    PERFORMER "Murray Perahia, Berliner Philharmoniker. Claudio Abbado, conductor"
    REM DATE 1994
    INDEX 01 00:00:00
    TRACK 02 AUDIO
    TITLE "Klavierkonzert a-moll, Op. 54: II. Intermezzo: Andantino grazioso"
    PERFORMER "Murray Perahia, Berliner Philharmoniker. Claudio Abbado, conductor"
    REM DATE 1994
    INDEX 00 14:48:27
    INDEX 01 14:52:45
    TRACK 03 AUDIO
    TITLE "Klavierkonzert a-moll, Op. 54: III. Allegro vivace"
    PERFORMER "Murray Perahia, Berliner Philharmoniker. Claudio Abbado, conductor"
    REM DATE 1994
    INDEX 01 20:01:17
    TRACK 04 AUDIO
    TITLE "Konzertstück (Introduction und Allegro appassionato) G-dur, Op. 92"
    PERFORMER "Murray Perahia, Berliner Philharmoniker. Claudio Abbado, conductor"
    REM DATE 1997
    INDEX 00 30:09:07
    INDEX 01 30:17:52
    TRACK 05 AUDIO
    TITLE "Concert-Allegro mit Introduction d-moll, Op. 134"
    PERFORMER "Murray Perahia, Berliner Philharmoniker. Claudio Abbado, conductor"
    REM DATE 1997
    INDEX 00 44:28:20
    INDEX 01 44:35:50
    -
    Robert Schumann — каталог раздач на rutracker.orgВсе мои раздачи / All my releases
    [teatrix.ru].t18106.torrent 
    Торрент: Зарегистрирован [ 2016-03-17 00:43 ] · 3194C0CF6603D3B35EBA80E9808954D62B820561

    Скачать .torrent

    Скачать

    19 KB

    Статус: проверено
    Скачан: 1 раз
    Размер: 225 MB
    terms.php



  • Быстрый ответ

    Имя:

          
    Для отправки сообщений необходимо включить JavaScript
    Показать сообщения:    

    Текущее время: 05-Дек 11:30

    Часовой пояс: UTC + 3


    Вы можете начинать темы
    Вы можете отвечать на сообщения
    Вы не можете редактировать свои сообщения
    Вы не можете удалять свои сообщения
    Вы не можете голосовать в опросах
    Вы не можете прикреплять файлы к сообщениям
    Вы можете скачивать файлы