(Classical) Пётр Ильич Чайковский - Концерт для скрипки с оркестром соч.35, Воспоминание о дорогом месте соч. 42,Лебединое озеро соч.20 (Baiba Skride; City of Birmingham Symphony Orchestra,Andris Nelsons) - 2008, FLAC (image+.cue) lossless


Статистика раздачи [Обновить пиров]
Размер:  286 MB   |    Зарегистрирован:  8 месяцев 25 дней   |    Скачан:  0 раз

Полного источника не было: Никогда

 
   
 
 
 

[Цитировать]

Пётр Ильич Чайковский- Концерт для скрипки с оркестром соч.35, Воспоминание о дорогом месте соч. 42, Лебединое озеро соч.20
(Baiba Skride; City of Birmingham Symphony Orchestra,Andris Nelsons)
Пётр Ильич Чайковский (1840-1893) Жанр: Classical
Страна-производитель диска: E.U.
Год издания диска: 2008
Издатель (лейбл): Sony BMG Music Entertaiment
Номер по каталогу: 88697214232
Дата записи: 3/4 09. 2007
Аудиокодек: FLAC
Тип рипа: image+.cue
Битрейт аудио: lossless
Продолжительность: 01:07:51
Источник: JVA
Наличие сканов в содержимом раздачи: да
Треклист:
Souvenir Russe
Konzert fur Violine und Orchester op. 35 D-Dur
01. I. Allegro molto (19:37)
02. II. Canzonetta. Andante (7:03)
03. III. Finale. Allegro vivacissimo (10:46)
Souvenir d'un lieu cher op. 42*
(Arr. fur Violine und Orchester: Alexander Glasunow - Weltersteinspielung)
04. I. Meditation (10:03)
05. II. Scherzo (3:44)
06. III. Melodie (4:15)
Schwanensee op. 20
07. Pas d 'action aus dem 2. Akt (7:03)
Robert Johnston, Harfe; Ulrich Heinen, Cello
08. Danse Russe aus dem 3. Akt (4:41)
Исполнители:
Baiba Skride, Violine
City of Birmingham Symphony Orchestra
Andris Nelsons, Dirigent

Лог создания рипа

Exact Audio Copy V0.99 prebeta 5 from 4. May 2009
Отчёт EAC об извлечении, выполненном 30. марта 2013, 1:04
Baiba Skride / Tchaikovsky Souvenir Russe
Дисковод: ASUS SBC-06D1S-U Adapter: 2 ID: 0
Режим чтения : Достоверность
Использование точного потока : Да
Отключение кэша аудио : Да
Использование указателей C2 : Нет
Коррекция смещения при чтении : 102
Способность читать области Lead-in и Lead-out : Нет
Заполнение пропущенных сэмплов тишиной : Да
Удаление блоков с тишиной в начале и конце : Нет
При вычислениях CRC использовались нулевые сэмплы : Да
Интерфейс : Встроенный Win32-интерфейс для Win NT/2000
Выходной формат : Пользовательский кодировщик
Выбранный битрейт : 768 kBit/s
Качество : Высокий
Добавление ID3-тэга : Нет
Утилита сжатия : C:\Program Files (x86)\Exact Audio Copy\Flac\flac.exe
Дополнительные параметры : -6 -V -T "ARTIST=%a" -T "TITLE=%t" -T "ALBUM=%g" -T "DATE=%y" -T "TRACKNUMBER=%n" -T "GENRE=%m" -T "COMMENT=%e" %s -o %d
TOC извлечённого CD
Трек | Старт | Длительность | Начальный сектор | Конечный сектор
---------------------------------------------------------------------
1 | 0:00.00 | 19:37.36 | 0 | 88310
2 | 19:37.36 | 7:03.16 | 88311 | 120051
3 | 26:40.52 | 10:56.26 | 120052 | 169277
4 | 37:37.03 | 10:03.27 | 169278 | 214529
5 | 47:40.30 | 3:43.34 | 214530 | 231288
6 | 51:23.64 | 4:25.68 | 231289 | 251231
7 | 55:49.57 | 7:16.55 | 251232 | 283986
8 | 63:06.37 | 4:40.54 | 283987 | 305040
Характеристики диапазона извлечения и сообщения об ошибках
Выбранный диапазон
Имя файла F:\EAC_AdvantiX\Baiba Skride - Tchaikovsky Souvenir Russe\Baiba Skride - Tchaikovsky Souvenir Russe.wav
Пиковый уровень 99.0 %
Качество диапазона 100.0 %
CRC копии E4972DA9
Копирование... OK
Ошибок не произошло
AccurateRip: сводка
Трек 1 точное извлечение (доверие 9) [E016A13E]
Трек 2 точное извлечение (доверие 9) [966CA17E]
Трек 3 точное извлечение (доверие 9) [A9D17D78]
Трек 4 точное извлечение (доверие 9) [CA8B5CE2]
Трек 5 точное извлечение (доверие 9) [8DC6CB8A]
Трек 6 точное извлечение (доверие 9) [C1D283D3]
Трек 7 точное извлечение (доверие 9) [A6878321]
Трек 8 точное извлечение (доверие 9) [7E157750]
Все треки извлечены точно
Конец отчёта

Лог проверки качества


Скриншот спектра частот

[teatrix.ru].t18111.torrent 
Торрент: Зарегистрирован [ 2016-03-17 00:43 ] · CD4BCB539B19059951C9E35BCB60D9EDB9E01FB1

Скачать .torrent

Скачать

12 KB

Статус: проверено
Скачан: 0 раз
Размер: 286 MB
terms.php



Быстрый ответ

Имя:

      
Для отправки сообщений необходимо включить JavaScript
Показать сообщения:    

Текущее время: 11-Дек 11:09

Часовой пояс: UTC + 3


Вы можете начинать темы
Вы можете отвечать на сообщения
Вы не можете редактировать свои сообщения
Вы не можете удалять свои сообщения
Вы не можете голосовать в опросах
Вы не можете прикреплять файлы к сообщениям
Вы можете скачивать файлы