(Classical, contemporary) Giles Swayne - Stabat mater; The silent land; Magnificat I; Ave verum corpus - Raphael Wallfisch, Dmitri Ensemble, Graham Ross - 2010, FLAC (image+.cue) lossless


Статистика раздачи [Обновить пиров]
Размер:  265 MB   |    Зарегистрирован:  8 месяцев 21 день   |    Скачан:  0 раз

Полного источника не было: Никогда

 
   
 
 
 

[Цитировать]

Giles Swayne - Stabat mater; The silent land; Magnificat I; Ave verum corpus - Raphael Wallfisch, Dmitri Ensemble, Graham Ross
Жанр: Classical, contemporary
Год издания диска: 2010
Издатель (лейбл): Naxos
Номер по каталогу: 8.572595
Дата записи: 2010
Аудиокодек: FLAC
Тип рипа: image+.cue
Битрейт аудио: lossless
Продолжительность: 68:18
Источник: собственный рип
Наличие сканов в содержимом раздачи: да
Треклист:
Giles Swayne (b.1946)
[1] Senegalese Song: O Lulum (archival sound recording, 1982)
[2] Magnificat I (1982)
[3] The silent land (1997) *
[4] Ave verum corpus (2003) *
[5]-[17] Stabat mater (2004) *
* world première recording
Исполнители:
Sophie Bevan soprano
Kate Symonds-Joy mezzo-soprano
Ben Alden tenor
Jonathan Sells bass
Raphael Wallfisch cello
The Dmitri Ensemble
Graham Ross

Лог создания рипа

Exact Audio Copy V1.0 beta 3 from 29. August 2011
EAC extraction logfile from 13. December 2013, 1:31
Raphael Wallfisch, The Dmitri Ensemble, Graham Ross / Swayne - Stabat mater; The silent land
Used drive : HL-DT-STDVDRAM GSA-4083N Adapter: 1 ID: 0
Read mode : Secure
Utilize accurate stream : Yes
Defeat audio cache : Yes
Make use of C2 pointers : No
Read offset correction : 667
Overread into Lead-In and Lead-Out : No
Fill up missing offset samples with silence : Yes
Delete leading and trailing silent blocks : No
Null samples used in CRC calculations : Yes
Used interface : Native Win32 interface for Win NT & 2000
Used output format : User Defined Encoder
Selected bitrate : 896 kBit/s
Quality : High
Add ID3 tag : No
Command line compressor : C:\Program Files\Exact Audio Copy\Flac\flac.exe
Additional command line options : -V -8 %source%
TOC of the extracted CD
Track | Start | Length | Start sector | End sector
---------------------------------------------------------
1 | 0:00.00 | 1:37.14 | 0 | 7288
2 | 1:37.14 | 4:23.06 | 7289 | 27019
3 | 6:00.20 | 22:58.43 | 27020 | 130412
4 | 28:58.63 | 3:06.33 | 130413 | 144395
5 | 32:05.21 | 2:49.18 | 144396 | 157088
6 | 34:54.39 | 1:47.03 | 157089 | 165116
7 | 36:41.42 | 2:00.45 | 165117 | 174161
8 | 38:42.12 | 6:11.69 | 174162 | 202055
9 | 44:54.06 | 3:54.33 | 202056 | 219638
10 | 48:48.39 | 2:28.09 | 219639 | 230747
11 | 51:16.48 | 0:37.48 | 230748 | 233570
12 | 51:54.21 | 2:10.45 | 233571 | 243365
13 | 54:04.66 | 4:10.66 | 243366 | 262181
14 | 58:15.57 | 0:41.12 | 262182 | 265268
15 | 58:56.69 | 1:21.56 | 265269 | 271399
16 | 60:18.50 | 3:44.71 | 271400 | 288270
17 | 64:03.46 | 4:12.29 | 288271 | 307199
Range status and errors
Selected range
Filename J:\New Music\Naxos_8.572595 - Swayne - Stabat mater; The silent land\Swayne - Stabat mater; The silent land.wav
Peak level 97.7 %
Extraction speed 2.7 X
Range quality 100.0 %
Test CRC BC847834
Copy CRC BC847834
Copy OK
No errors occurred
AccurateRip summary
Track 1 accurately ripped (confidence 2) [57125A29] (AR v2)
Track 2 accurately ripped (confidence 2) [969D9ADE] (AR v2)
Track 3 accurately ripped (confidence 2) [8C15ABAF] (AR v2)
Track 4 accurately ripped (confidence 2) [F460CD20] (AR v2)
Track 5 accurately ripped (confidence 2) [95EC8395] (AR v2)
Track 6 accurately ripped (confidence 2) [8810E894] (AR v2)
Track 7 accurately ripped (confidence 2) [C0DA1C81] (AR v2)
Track 8 accurately ripped (confidence 2) [26250164] (AR v2)
Track 9 accurately ripped (confidence 2) [DD203180] (AR v2)
Track 10 accurately ripped (confidence 2) [DA9C21C8] (AR v2)
Track 11 accurately ripped (confidence 2) [D90C6495] (AR v2)
Track 12 accurately ripped (confidence 2) [2E9C249D] (AR v2)
Track 13 accurately ripped (confidence 2) [82134DED] (AR v2)
Track 14 accurately ripped (confidence 2) [52819CCE] (AR v2)
Track 15 accurately ripped (confidence 2) [DB458764] (AR v2)
Track 16 accurately ripped (confidence 2) [3DF54275] (AR v2)
Track 17 accurately ripped (confidence 2) [00526A60] (AR v2)
All tracks accurately ripped
End of status report
==== Log checksum 01183C62E341AAC8A2C8DCC60D4030B3D4DBBD00B9EB9C26100353865735F310 ====
[teatrix.ru].t18112.torrent 
Торрент: Зарегистрирован [ 2016-03-17 00:43 ] · 341A22A334C6B11B9AC62D1140FED9BC40B79FD0

Скачать .torrent

Скачать

22 KB

Статус: проверено
Скачан: 0 раз
Размер: 265 MB
terms.php



Быстрый ответ

Имя:

      
Для отправки сообщений необходимо включить JavaScript
Показать сообщения:    

Текущее время: 07-Дек 21:25

Часовой пояс: UTC + 3


Вы можете начинать темы
Вы можете отвечать на сообщения
Вы не можете редактировать свои сообщения
Вы не можете удалять свои сообщения
Вы не можете голосовать в опросах
Вы не можете прикреплять файлы к сообщениям
Вы можете скачивать файлы