(Classical / Vocal) Franz Schubert - Winterreise / Франц Шуберт - Зимний путь (Dietrich Fischer-Dieskau, Daniel Barenboim / Дитрих Фишер-Дискау, Даниэль Баренбойм, 1979) - 2013, FLAC (tracks+.cue) lossless


 

[Цитировать]

Franz Schubert | Франц Шуберт
(1797–1828)



«Winterreise» | «Зимний путь»
Liederzyklus nach Gedichten von Wilhelm Müller


Dietrich Fischer-Dieskau baritoneDaniel Barenboim piano


Жанр: Classical / Vocal
Дата и место записи: Studio Lankwitz, Berlin, January 1979
Формат записи: ADD, Stereo
Год издания диска: 2013
Издатель (лейбл): Deutsche Grammophon
Номер по каталогу: 478 5186
Аудиокодек: FLAC
Тип рипа: tracks+.cue
Битрейт аудио: lossless
Продолжительность: 1:13:06
Наличие сканов в содержимом раздачи: да
Источник: What.CD
Релизёр: Kalinta

-Tracklist / Треклист
Winterreise, D. 911 - 1:13:06
Nr. 1. Gute Nacht - 5:18
  • Nr. 2. Die Wetterfahne - 1:50
  • Nr. 3. Gefrorne Tränen - 2:16
  • Nr. 4. Erstarrung - 2:55
  • Nr. 5. Der Lindenbaum - 4:48
  • Nr. 6. Wasserflut - 4:35
  • Nr. 7. Auf dem Flusse - 3:31
  • Nr. 8. Rückblick - 2:29
  • Nr. 9. Irrlicht - 2:31
  • Nr. 10. Rast - 3:06
  • Nr. 11. Frühlingstraum - 4:08
  • Nr. 12. Einsamkeit - 2:47
  • Nr. 13. Die Post - 2:16
  • Nr. 14. Der greise Kopf - 3:14
  • Nr. 15. Die Krähe - 2:22
  • Nr. 16. Letzte Hoffnung - 2:02
  • Nr. 17. Im Dorfe - 3:38
  • Nr. 18. Der stürmische Morgen - 0:54
  • Nr. 19. Täuschung - 1:35
  • Nr. 20. Der Wegweiser - 4:05
  • Nr. 21. Das Wirtshaus - 4:26
  • Nr. 22. Mut! - 1:27
  • Nr. 23. Die Nebensonnen - 2:44
  • Nr. 24. Der Leiermann - 4:09-

    EAC log / Отчёт EAC

    Exact Audio Copy V1.0 beta 3 from 29. August 2011
    EAC extraction logfile from 5. October 2013, 9:53
    Dietrich Fischer-Dieskau / Schubert - Winterreise
    Used drive : SlimtypeDVD A DS8A8SH Adapter: 1 ID: 0
    Read mode : Secure
    Utilize accurate stream : Yes
    Defeat audio cache : Yes
    Make use of C2 pointers : No
    Read offset correction : 6
    Overread into Lead-In and Lead-Out : No
    Fill up missing offset samples with silence : Yes
    Delete leading and trailing silent blocks : No
    Null samples used in CRC calculations : Yes
    Used interface : Native Win32 interface for Win NT & 2000
    Gap handling : Appended to previous track
    Used output format : User Defined Encoder
    Selected bitrate : 512 kBit/s
    Quality : High
    Add ID3 tag : No
    Command line compressor : C:\Program Files (x86)\Exact Audio Copy\Flac\flac.exe
    Additional command line options : -8 -V -T "ARTIST=%artist%" -T "TITLE=%title%" -T "ALBUM=%albumtitle%" -T "DATE=%year%" -T "TRACKNUMBER=%tracknr%" -T "TOTALTRACKS=%numtracks%" -T "GENRE=%genre%" -T "ALBUMARTIST=%albumartist%" -T "ALBUM ARTIST=%albumartist%" -T "COMMENT=EAC Secure Mode, Test & Copy, AccurateRip, FLAC -8" %source%
    TOC of the extracted CD
    Track | Start | Length | Start sector | End sector
    ---------------------------------------------------------
    1 | 0:00.33 | 5:18.00 | 33 | 23882
    2 | 5:18.33 | 1:50.00 | 23883 | 32132
    3 | 7:08.33 | 2:15.40 | 32133 | 42297
    4 | 9:23.73 | 2:55.10 | 42298 | 55432
    5 | 12:19.08 | 4:48.25 | 55433 | 77057
    6 | 17:07.33 | 4:35.37 | 77058 | 97719
    7 | 21:42.70 | 3:30.63 | 97720 | 113532
    8 | 25:13.58 | 2:29.12 | 113533 | 124719
    9 | 27:42.70 | 2:30.38 | 124720 | 136007
    10 | 30:13.33 | 3:06.00 | 136008 | 149957
    11 | 33:19.33 | 4:08.00 | 149958 | 168557
    12 | 37:27.33 | 2:46.62 | 168558 | 181069
    13 | 40:14.20 | 2:15.50 | 181070 | 191244
    14 | 42:29.70 | 3:14.00 | 191245 | 205794
    15 | 45:43.70 | 2:21.63 | 205795 | 216432
    16 | 48:05.58 | 2:02.25 | 216433 | 225607
    17 | 50:08.08 | 3:37.50 | 225608 | 241932
    18 | 53:45.58 | 0:53.50 | 241933 | 245957
    19 | 54:39.33 | 1:35.25 | 245958 | 253107
    20 | 56:14.58 | 4:05.25 | 253108 | 271507
    21 | 60:20.08 | 4:26.00 | 271508 | 291457
    22 | 64:46.08 | 1:27.25 | 291458 | 298007
    23 | 66:13.33 | 2:44.37 | 298008 | 310344
    24 | 68:57.70 | 4:08.38 | 310345 | 328982
    Track 1
    Filename I:\MY RIPS\Schubert - Winterreise (2013) [FLAC] {DG 478 5186}\01 - Gute Nacht.wav
    Pre-gap length 0:00:02.33
    Peak level 42.4 %
    Extraction speed 1.3 X
    Track quality 100.0 %
    Test CRC 4C97D375
    Copy CRC 4C97D375
    Track not present in AccurateRip database
    Copy OK
    Track 2
    Filename I:\MY RIPS\Schubert - Winterreise (2013) [FLAC] {DG 478 5186}\02 - Die Wetterfahne.wav
    Peak level 99.2 %
    Extraction speed 1.2 X
    Track quality 100.0 %
    Test CRC 45D21AC1
    Copy CRC 45D21AC1
    Track not present in AccurateRip database
    Copy OK
    Track 3
    Filename I:\MY RIPS\Schubert - Winterreise (2013) [FLAC] {DG 478 5186}\03 - Gefrorene Tranen.wav
    Peak level 95.5 %
    Extraction speed 1.3 X
    Track quality 100.0 %
    Test CRC EF86BC10
    Copy CRC EF86BC10
    Track not present in AccurateRip database
    Copy OK
    Track 4
    Filename I:\MY RIPS\Schubert - Winterreise (2013) [FLAC] {DG 478 5186}\04 - Erstarrung.wav
    Peak level 92.7 %
    Extraction speed 1.4 X
    Track quality 100.0 %
    Test CRC 1D8DD234
    Copy CRC 1D8DD234
    Track not present in AccurateRip database
    Copy OK
    Track 5
    Filename I:\MY RIPS\Schubert - Winterreise (2013) [FLAC] {DG 478 5186}\05 - Der Lindenbaum.wav
    Peak level 73.5 %
    Extraction speed 1.6 X
    Track quality 100.0 %
    Test CRC 1466CADD
    Copy CRC 1466CADD
    Track not present in AccurateRip database
    Copy OK
    Track 6
    Filename I:\MY RIPS\Schubert - Winterreise (2013) [FLAC] {DG 478 5186}\06 - Wasserflut.wav
    Peak level 67.7 %
    Extraction speed 1.7 X
    Track quality 100.0 %
    Test CRC 329F92B3
    Copy CRC 329F92B3
    Track not present in AccurateRip database
    Copy OK
    Track 7
    Filename I:\MY RIPS\Schubert - Winterreise (2013) [FLAC] {DG 478 5186}\07 - Auf dem Flusse.wav
    Peak level 90.1 %
    Extraction speed 1.5 X
    Track quality 99.9 %
    Test CRC EFA51A4E
    Copy CRC EFA51A4E
    Track not present in AccurateRip database
    Copy OK
    Track 8
    Filename I:\MY RIPS\Schubert - Winterreise (2013) [FLAC] {DG 478 5186}\08 - Ruckblick.wav
    Peak level 92.2 %
    Extraction speed 1.7 X
    Track quality 100.0 %
    Test CRC 35882EFF
    Copy CRC 35882EFF
    Track not present in AccurateRip database
    Copy OK
    Track 9
    Filename I:\MY RIPS\Schubert - Winterreise (2013) [FLAC] {DG 478 5186}\09 - Irrlicht.wav
    Peak level 51.1 %
    Extraction speed 1.8 X
    Track quality 100.0 %
    Test CRC A0575C57
    Copy CRC A0575C57
    Track not present in AccurateRip database
    Copy OK
    Track 10
    Filename I:\MY RIPS\Schubert - Winterreise (2013) [FLAC] {DG 478 5186}\10 - Rast.wav
    Peak level 74.9 %
    Extraction speed 1.9 X
    Track quality 100.0 %
    Test CRC B0F9A210
    Copy CRC B0F9A210
    Track not present in AccurateRip database
    Copy OK
    Track 11
    Filename I:\MY RIPS\Schubert - Winterreise (2013) [FLAC] {DG 478 5186}\11 - Fruhlingstraum.wav
    Peak level 99.9 %
    Extraction speed 1.8 X
    Track quality 99.9 %
    Test CRC 1F59CAD0
    Copy CRC 1F59CAD0
    Track not present in AccurateRip database
    Copy OK
    Track 12
    Filename I:\MY RIPS\Schubert - Winterreise (2013) [FLAC] {DG 478 5186}\12 - Einsamkeit.wav
    Peak level 91.5 %
    Extraction speed 2.0 X
    Track quality 100.0 %
    Test CRC D0D1930D
    Copy CRC D0D1930D
    Track not present in AccurateRip database
    Copy OK
    Track 13
    Filename I:\MY RIPS\Schubert - Winterreise (2013) [FLAC] {DG 478 5186}\13 - Die Post.wav
    Peak level 89.4 %
    Extraction speed 1.9 X
    Track quality 100.0 %
    Test CRC DF891944
    Copy CRC DF891944
    Track not present in AccurateRip database
    Copy OK
    Track 14
    Filename I:\MY RIPS\Schubert - Winterreise (2013) [FLAC] {DG 478 5186}\14 - Der greise Kopf.wav
    Peak level 66.6 %
    Extraction speed 2.1 X
    Track quality 100.0 %
    Test CRC 59011323
    Copy CRC 59011323
    Track not present in AccurateRip database
    Copy OK
    Track 15
    Filename I:\MY RIPS\Schubert - Winterreise (2013) [FLAC] {DG 478 5186}\15 - Die Krahe.wav
    Peak level 86.5 %
    Extraction speed 2.0 X
    Track quality 100.0 %
    Test CRC 7C283E68
    Copy CRC 7C283E68
    Track not present in AccurateRip database
    Copy OK
    Track 16
    Filename I:\MY RIPS\Schubert - Winterreise (2013) [FLAC] {DG 478 5186}\16 - Letzte Hoffnung.wav
    Peak level 61.6 %
    Extraction speed 2.0 X
    Track quality 100.0 %
    Test CRC FE0D68C3
    Copy CRC FE0D68C3
    Track not present in AccurateRip database
    Copy OK
    Track 17
    Filename I:\MY RIPS\Schubert - Winterreise (2013) [FLAC] {DG 478 5186}\17 - Im Dorfe.wav
    Peak level 47.2 %
    Extraction speed 2.3 X
    Track quality 100.0 %
    Test CRC DD6860FB
    Copy CRC DD6860FB
    Track not present in AccurateRip database
    Copy OK
    Track 18
    Filename I:\MY RIPS\Schubert - Winterreise (2013) [FLAC] {DG 478 5186}\18 - Der sturmische Morgen.wav
    Peak level 99.7 %
    Extraction speed 1.6 X
    Track quality 100.0 %
    Test CRC 55B47398
    Copy CRC 55B47398
    Track not present in AccurateRip database
    Copy OK
    Track 19
    Filename I:\MY RIPS\Schubert - Winterreise (2013) [FLAC] {DG 478 5186}\19 - Tauschung.wav
    Peak level 38.6 %
    Extraction speed 2.0 X
    Track quality 100.0 %
    Test CRC 9B6593A3
    Copy CRC 9B6593A3
    Track not present in AccurateRip database
    Copy OK
    Track 20
    Filename I:\MY RIPS\Schubert - Winterreise (2013) [FLAC] {DG 478 5186}\20 - Der Wegweiser.wav
    Peak level 69.8 %
    Extraction speed 2.2 X
    Track quality 99.9 %
    Test CRC A16AEE9D
    Copy CRC A16AEE9D
    Track not present in AccurateRip database
    Copy OK
    Track 21
    Filename I:\MY RIPS\Schubert - Winterreise (2013) [FLAC] {DG 478 5186}\21 - Das Wirtshaus.wav
    Peak level 74.1 %
    Extraction speed 2.5 X
    Track quality 100.0 %
    Test CRC 5CBF3A25
    Copy CRC 5CBF3A25
    Track not present in AccurateRip database
    Copy OK
    Track 22
    Filename I:\MY RIPS\Schubert - Winterreise (2013) [FLAC] {DG 478 5186}\22 - Mut!.wav
    Peak level 96.2 %
    Extraction speed 2.0 X
    Track quality 100.0 %
    Test CRC BEC715F1
    Copy CRC BEC715F1
    Track not present in AccurateRip database
    Copy OK
    Track 23
    Filename I:\MY RIPS\Schubert - Winterreise (2013) [FLAC] {DG 478 5186}\23 - Die Nebensonnen.wav
    Peak level 67.2 %
    Extraction speed 2.4 X
    Track quality 100.0 %
    Test CRC 25887D5F
    Copy CRC 25887D5F
    Track not present in AccurateRip database
    Copy OK
    Track 24
    Filename I:\MY RIPS\Schubert - Winterreise (2013) [FLAC] {DG 478 5186}\24 - Der Leiermann.wav
    Peak level 28.5 %
    Extraction speed 2.6 X
    Track quality 100.0 %
    Test CRC 3B805577
    Copy CRC 3B805577
    Track not present in AccurateRip database
    Copy OK
    None of the tracks are present in the AccurateRip database
    No errors occurred
    End of status report
    ==== Log checksum 250D43025D6B587EBC823E766ABD7C6091722F883D66873D5588EB6424463C6B ====

    auCDtect Task Manager log / Отчёт auCDtect Task Manager

    -----------------------
    DON'T MODIFY THIS FILE
    -----------------------
    PERFORMER: auCDtect Task Manager, ver. 1.5.1RC3 build 1.5.1.4
    Copyright (c) 2008-2010 y-soft. All rights reserved
    ANALYZER: auCDtect: CD records authenticity detector, version 0.8.2
    Copyright (c) 2004 Oleg Berngardt. All rights reserved.
    Copyright (c) 2004 Alexander Djourik. All rights reserved.
    FILE: 02 - Winterreise, D. 911 - Nr. 2. Die Wetterfahne.flac
    Size: 7297640 Hash: 9DBCD6F0CE5DCAAA725378B3048E0622 Accuracy: -m0
    Conclusion: CDDA 100%
    Signature: 5020EDF35CF93B12F05E89240FBDBC96748FD9F5
    FILE: 01 - Winterreise, D. 911 - Nr. 1. Gute Nacht.flac
    Size: 18196983 Hash: 481A990E0424678B27222712EE77E0C2 Accuracy: -m0
    Conclusion: CDDA 100%
    Signature: 91E67DB99C5D087E1D247FC7C4A25D0856BBA0A5
    FILE: 24 - Winterreise, D. 911 - Nr. 24. Der Leiermann.flac
    Size: 11137837 Hash: A573853BD4F5DC906D07FD7DB5763678 Accuracy: -m0
    Conclusion: CDDA 100%
    Signature: 34C1B648E75D59872F8F1D822E58F6C73106F163
    FILE: 23 - Winterreise, D. 911 - Nr. 23. Die Nebensonnen.flac
    Size: 8940305 Hash: 5D9D3E88B5F97440E8C6FC916987B691 Accuracy: -m0
    Conclusion: CDDA 100%
    Signature: 35B39C982D04CCCE98A6C118F98A033E4E5440AA
    FILE: 22 - Winterreise, D. 911 - Nr. 22. Mut!.flac
    Size: 6268622 Hash: 312ED4CC264C10A7C3E507FAD6023F5F Accuracy: -m0
    Conclusion: CDDA 100%
    Signature: AFBF81724EC3CF82ECDE0086D8261BF2ADD33E84
    FILE: 21 - Winterreise, D. 911 - Nr. 21. Das Wirtshaus.flac
    Size: 14625869 Hash: 16A1CF31E43251C60F34C80C61DF961E Accuracy: -m0
    Conclusion: CDDA 100%
    Signature: A2116B3F8F874FDA840A7FB079F3BC457738BC8B
    FILE: 20 - Winterreise, D. 911 - Nr. 20. Der Wegweiser.flac
    Size: 13891360 Hash: 00CCC5959B6B7EA8AC201AB5141D6878 Accuracy: -m0
    Conclusion: CDDA 100%
    Signature: 4B00D679B2661A85765E23122E4748455A1928DE
    FILE: 19 - Winterreise, D. 911 - Nr. 19. Taeuschung.flac
    Size: 5324325 Hash: 244F87CFAC92BA72835B6DFD0A031F9B Accuracy: -m0
    Conclusion: CDDA 100%
    Signature: E88D2EB2FCD902494720F9E97647DF86A0AB18EA
    FILE: 18 - Winterreise, D. 911 - Nr. 18. Der stuermische Morgen.flac
    Size: 4006371 Hash: E318ECE529B2506B817A7DDC204C4A02 Accuracy: -m0
    Conclusion: CDDA 100%
    Signature: 8D079B57D5888A99F76FB36DBCAEE4EAC621B542
    FILE: 17 - Winterreise, D. 911 - Nr. 17. Im Dorfe.flac
    Size: 11850450 Hash: E81F39CCABC36C93E4F2E0FE194F3CE1 Accuracy: -m0
    Conclusion: CDDA 99%
    Signature: 3B763189D9404A73E04F08EAF1FD57594430BED8
    FILE: 16 - Winterreise, D. 911 - Nr. 16. Letzte Hoffnung.flac
    Size: 6893512 Hash: A0DD554147F013978E1416CD75591216 Accuracy: -m0
    Conclusion: CDDA 100%
    Signature: 27D14D094E417D2BB01A4F78A96E5C3D3DF63D96
    FILE: 15 - Winterreise, D. 911 - Nr. 15. Die Kraehe.flac
    Size: 7978785 Hash: 2FF7FBC5A03F2D418A7F3134BBDB5920 Accuracy: -m0
    Conclusion: CDDA 100%
    Signature: 32F94CD4161ABF9A142230C6EE68830EA530B652
    FILE: 14 - Winterreise, D. 911 - Nr. 14. Der greise Kopf.flac
    Size: 10270490 Hash: 05A0865A4DC809F6B3769AFA30078AAA Accuracy: -m0
    Conclusion: CDDA 100%
    Signature: B6C4C79CCD6A65EF5028DD251A6C7C51F7695FC9
    FILE: 13 - Winterreise, D. 911 - Nr. 13. Die Post.flac
    Size: 8214878 Hash: 48CAA8B1FFD687456A5DB03508504F69 Accuracy: -m0
    Conclusion: CDDA 100%
    Signature: D155E2D2475D7AB3E87D6383B65CE3398D8B3268
    FILE: 12 - Winterreise, D. 911 - Nr. 12. Einsamkeit.flac
    Size: 9786761 Hash: AB657F857DF3D66961DAE00304D39044 Accuracy: -m0
    Conclusion: CDDA 100%
    Signature: F6B93297A63220879AA3197731DFEAEFAC109A7F
    FILE: 11 - Winterreise, D. 911 - Nr. 11. Fruehlingstraum.flac
    Size: 13524086 Hash: E4497EAE86302847B98429D70EBB5397 Accuracy: -m0
    Conclusion: CDDA 100%
    Signature: BFDA0B921CE7BEB50EBC0D3260796F303DF535FD
    FILE: 10 - Winterreise, D. 911 - Nr. 10. Rast.flac
    Size: 9820609 Hash: FD496A2E160EC867989E321030EDF62C Accuracy: -m0
    Conclusion: CDDA 100%
    Signature: 4ECE3ADC26253DE874917EACCC0553977E183F91
    FILE: 09 - Winterreise, D. 911 - Nr. 9. Irrlicht.flac
    Size: 8523834 Hash: 7F425DD5F10E34EDF4FA14F466CD8532 Accuracy: -m0
    Conclusion: CDDA 100%
    Signature: 457B0E60C9D560F357F8DF77618B6EDDCBB30587
    FILE: 08 - Winterreise, D. 911 - Nr. 8. Rueckblick.flac
    Size: 9141559 Hash: 5A1E037B09A70DAF92D52363ECBA3117 Accuracy: -m0
    Conclusion: CDDA 100%
    Signature: 2A4947969043FA919BE763F02D4089ED169A4489
    FILE: 07 - Winterreise, D. 911 - Nr. 7. Auf dem Flusse.flac
    Size: 12400735 Hash: F5CD59B0D954F83FEEBA2C5B1CC0890C Accuracy: -m0
    Conclusion: CDDA 100%
    Signature: 2A496D27C0E12FAD3FD15F00B86A673A1884723A
    FILE: 06 - Winterreise, D. 911 - Nr. 6. Wasserflut.flac
    Size: 14909931 Hash: 33B36B3CF5906BB94BA97D3F5B708E2A Accuracy: -m0
    Conclusion: CDDA 100%
    Signature: 89DAF5F60F06DDC09B21E83805FBF6E834453ECD
    FILE: 05 - Winterreise, D. 911 - Nr. 5. Der Lindenbaum.flac
    Size: 15993065 Hash: B23FD4A186736519D9C1A5052EA0DAB0 Accuracy: -m0
    Conclusion: CDDA 100%
    Signature: 136711185BE5FEE6C5585489F54E4573FD2AD3C3
    FILE: 04 - Winterreise, D. 911 - Nr. 4. Erstarrung.flac
    Size: 11725165 Hash: 63832A88F8F331FD08ABB3D3B843C29E Accuracy: -m0
    Conclusion: CDDA 100%
    Signature: ED21AF038DF0DD40FE7D95A2B35C0B18A26D31A9
    FILE: 03 - Winterreise, D. 911 - Nr. 3. Gefrorne Traenen.flac
    Size: 8212272 Hash: 95D383762AE7815282685EC7BD96EC63 Accuracy: -m0
    Conclusion: CDDA 100%
    Signature: 1BC3CA724348730B445F8CF8827B20E7610E06FB

    CUETools log / Отчёт CUETools

    [CUETools log; Date: 02.02.2014 18:01:13; Version: 2.1.4]
    Pregap length 00:00:33.
    [AccurateRip ID: 004159a3-0459170d-48112218] found.
    Track [ CRC | V2 ] Status
    01 [c29d91f0|92077a29] (0+2/2) Accurately ripped
    02 [ffdc9337|12b7f973] (0+2/2) Accurately ripped
    03 [4a74b82a|7e17faf2] (0+2/2) Accurately ripped
    04 [05304624|734f6a1c] (0+2/2) Accurately ripped
    05 [5f2c6257|ab312fe5] (0+2/2) Accurately ripped
    06 [306e918c|6235aa22] (0+2/2) Accurately ripped
    07 [09b96ed7|9d34a698] (0+2/2) Accurately ripped
    08 [b0926b0c|115355ae] (0+2/2) Accurately ripped
    09 [98f4e6a7|4f77158a] (0+2/2) Accurately ripped
    10 [b9581155|6344c5e8] (0+2/2) Accurately ripped
    11 [3e36a7be|09523511] (0+2/2) Accurately ripped
    12 [7b5d006d|6db63a97] (0+2/2) Accurately ripped
    13 [3d197382|1b912c84] (0+2/2) Accurately ripped
    14 [c8284272|44bdd958] (0+2/2) Accurately ripped
    15 [b396fcd5|d24b44a5] (0+2/2) Accurately ripped
    16 [e5980f29|cff491e3] (0+2/2) Accurately ripped
    17 [1e4c8b91|48ef2173] (0+2/2) Accurately ripped
    18 [58895ef1|a7b7f267] (0+2/2) Accurately ripped
    19 [6b7f88cd|1071afd1] (0+2/2) Accurately ripped
    20 [043afb72|9da6e105] (0+2/2) Accurately ripped
    21 [f3a174e6|52e76bbf] (0+2/2) Accurately ripped
    22 [a9160095|83d0204a] (0+2/2) Accurately ripped
    23 [0ef797fa|c684eb09] (0+2/2) Accurately ripped
    24 [e732c327|3bb391ec] (0+2/2) Accurately ripped
    Track Peak [ CRC32 ] [W/O NULL] [ LOG ]
    -- 99,9 [0EDD0BCF] [E1DFBCD9]
    01 42,4 [4C97D375] [F5D72E3D] CRC32
    02 99,2 [45D21AC1] [C3B326AB] CRC32
    03 95,5 [EF86BC10] [8922552F] CRC32
    04 92,7 [1D8DD234] [7947D547] CRC32
    05 73,5 [1466CADD] [A6BAAACF] CRC32
    06 67,7 [329F92B3] [41F7B580] CRC32
    07 90,1 [EFA51A4E] [4A543727] CRC32
    08 92,2 [35882EFF] [D8B960B6] CRC32
    09 51,1 [A0575C57] [2A22D4E1] CRC32
    10 74,9 [B0F9A210] [8487DED8] CRC32
    11 99,9 [1F59CAD0] [311714AA] CRC32
    12 91,5 [D0D1930D] [17AE01A7] CRC32
    13 89,4 [DF891944] [395E8759] CRC32
    14 66,6 [59011323] [9A38D697] CRC32
    15 86,5 [7C283E68] [B75746CB] CRC32
    16 61,6 [FE0D68C3] [E5165852] CRC32
    17 47,2 [DD6860FB] [334A6F31] CRC32
    18 99,7 [55B47398] [C7E660D5] CRC32
    19 38,6 [9B6593A3] [37D2CF8E] CRC32
    20 69,8 [A16AEE9D] [04FD48E5] CRC32
    21 74,1 [5CBF3A25] [D16B19C2] CRC32
    22 96,2 [BEC715F1] [3F413DCA] CRC32
    23 67,2 [25887D5F] [40BB6E2C] CRC32
    24 28,5 [3B805577] [97C256E4] CRC32

    CUE sheet

    TITLE "Franz Schubert: Winterreise"
    PERFORMER "Dietrich Fischer-Dieskau"
    REM GENRE Classical
    REM DISCID 48112218
    REM COMMENT "ExactAudioCopy v1.0b3"
    FILE "01 - Winterreise, D. 911 - Nr. 1. Gute Nacht.flac" WAVE
    TRACK 01 AUDIO
    TITLE "Winterreise, D. 911: Nr. 1. Gute Nacht"
    PERFORMER "Dietrich Fischer-Dieskau (baritone), Daniel Barenboim (piano)"
    REM DATE 1979
    PREGAP 00:00:33
    INDEX 01 00:00:00
    FILE "02 - Winterreise, D. 911 - Nr. 2. Die Wetterfahne.flac" WAVE
    TRACK 02 AUDIO
    TITLE "Winterreise, D. 911: Nr. 2. Die Wetterfahne"
    PERFORMER "Dietrich Fischer-Dieskau (baritone), Daniel Barenboim (piano)"
    REM DATE 1979
    INDEX 01 00:00:00
    FILE "03 - Winterreise, D. 911 - Nr. 3. Gefrorne Traenen.flac" WAVE
    TRACK 03 AUDIO
    TITLE "Winterreise, D. 911: Nr. 3. Gefrorne Tränen"
    PERFORMER "Dietrich Fischer-Dieskau (baritone), Daniel Barenboim (piano)"
    REM DATE 1979
    INDEX 01 00:00:00
    FILE "04 - Winterreise, D. 911 - Nr. 4. Erstarrung.flac" WAVE
    TRACK 04 AUDIO
    TITLE "Winterreise, D. 911: Nr. 4. Erstarrung"
    PERFORMER "Dietrich Fischer-Dieskau (baritone), Daniel Barenboim (piano)"
    REM DATE 1979
    INDEX 01 00:00:00
    FILE "05 - Winterreise, D. 911 - Nr. 5. Der Lindenbaum.flac" WAVE
    TRACK 05 AUDIO
    TITLE "Winterreise, D. 911: Nr. 5. Der Lindenbaum"
    PERFORMER "Dietrich Fischer-Dieskau (baritone), Daniel Barenboim (piano)"
    REM DATE 1979
    INDEX 01 00:00:00
    FILE "06 - Winterreise, D. 911 - Nr. 6. Wasserflut.flac" WAVE
    TRACK 06 AUDIO
    TITLE "Winterreise, D. 911: Nr. 6. Wasserflut"
    PERFORMER "Dietrich Fischer-Dieskau (baritone), Daniel Barenboim (piano)"
    REM DATE 1979
    INDEX 01 00:00:00
    FILE "07 - Winterreise, D. 911 - Nr. 7. Auf dem Flusse.flac" WAVE
    TRACK 07 AUDIO
    TITLE "Winterreise, D. 911: Nr. 7. Auf dem Flusse"
    PERFORMER "Dietrich Fischer-Dieskau (baritone), Daniel Barenboim (piano)"
    REM DATE 1979
    INDEX 01 00:00:00
    FILE "08 - Winterreise, D. 911 - Nr. 8. Rueckblick.flac" WAVE
    TRACK 08 AUDIO
    TITLE "Winterreise, D. 911: Nr. 8. Rückblick"
    PERFORMER "Dietrich Fischer-Dieskau (baritone), Daniel Barenboim (piano)"
    REM DATE 1979
    INDEX 01 00:00:00
    FILE "09 - Winterreise, D. 911 - Nr. 9. Irrlicht.flac" WAVE
    TRACK 09 AUDIO
    TITLE "Winterreise, D. 911: Nr. 9. Irrlicht"
    PERFORMER "Dietrich Fischer-Dieskau (baritone), Daniel Barenboim (piano)"
    REM DATE 1979
    INDEX 01 00:00:00
    FILE "10 - Winterreise, D. 911 - Nr. 10. Rast.flac" WAVE
    TRACK 10 AUDIO
    TITLE "Winterreise, D. 911: Nr. 10. Rast"
    PERFORMER "Dietrich Fischer-Dieskau (baritone), Daniel Barenboim (piano)"
    REM DATE 1979
    INDEX 01 00:00:00
    FILE "11 - Winterreise, D. 911 - Nr. 11. Fruehlingstraum.flac" WAVE
    TRACK 11 AUDIO
    TITLE "Winterreise, D. 911: Nr. 11. Frühlingstraum"
    PERFORMER "Dietrich Fischer-Dieskau (baritone), Daniel Barenboim (piano)"
    REM DATE 1979
    INDEX 01 00:00:00
    FILE "12 - Winterreise, D. 911 - Nr. 12. Einsamkeit.flac" WAVE
    TRACK 12 AUDIO
    TITLE "Winterreise, D. 911: Nr. 12. Einsamkeit"
    PERFORMER "Dietrich Fischer-Dieskau (baritone), Daniel Barenboim (piano)"
    REM DATE 1979
    INDEX 01 00:00:00
    FILE "13 - Winterreise, D. 911 - Nr. 13. Die Post.flac" WAVE
    TRACK 13 AUDIO
    TITLE "Winterreise, D. 911: Nr. 13. Die Post"
    PERFORMER "Dietrich Fischer-Dieskau (baritone), Daniel Barenboim (piano)"
    REM DATE 1979
    INDEX 01 00:00:00
    FILE "14 - Winterreise, D. 911 - Nr. 14. Der greise Kopf.flac" WAVE
    TRACK 14 AUDIO
    TITLE "Winterreise, D. 911: Nr. 14. Der greise Kopf"
    PERFORMER "Dietrich Fischer-Dieskau (baritone), Daniel Barenboim (piano)"
    REM DATE 1979
    INDEX 01 00:00:00
    FILE "15 - Winterreise, D. 911 - Nr. 15. Die Kraehe.flac" WAVE
    TRACK 15 AUDIO
    TITLE "Winterreise, D. 911: Nr. 15. Die Krähe"
    PERFORMER "Dietrich Fischer-Dieskau (baritone), Daniel Barenboim (piano)"
    REM DATE 1979
    INDEX 01 00:00:00
    FILE "16 - Winterreise, D. 911 - Nr. 16. Letzte Hoffnung.flac" WAVE
    TRACK 16 AUDIO
    TITLE "Winterreise, D. 911: Nr. 16. Letzte Hoffnung"
    PERFORMER "Dietrich Fischer-Dieskau (baritone), Daniel Barenboim (piano)"
    REM DATE 1979
    INDEX 01 00:00:00
    FILE "17 - Winterreise, D. 911 - Nr. 17. Im Dorfe.flac" WAVE
    TRACK 17 AUDIO
    TITLE "Winterreise, D. 911: Nr. 17. Im Dorfe"
    PERFORMER "Dietrich Fischer-Dieskau (baritone), Daniel Barenboim (piano)"
    REM DATE 1979
    INDEX 01 00:00:00
    FILE "18 - Winterreise, D. 911 - Nr. 18. Der stuermische Morgen.flac" WAVE
    TRACK 18 AUDIO
    TITLE "Winterreise, D. 911: Nr. 18. Der stürmische Morgen"
    PERFORMER "Dietrich Fischer-Dieskau (baritone), Daniel Barenboim (piano)"
    REM DATE 1979
    INDEX 01 00:00:00
    FILE "19 - Winterreise, D. 911 - Nr. 19. Taeuschung.flac" WAVE
    TRACK 19 AUDIO
    TITLE "Winterreise, D. 911: Nr. 19. Täuschung"
    PERFORMER "Dietrich Fischer-Dieskau (baritone), Daniel Barenboim (piano)"
    REM DATE 1979
    INDEX 01 00:00:00
    FILE "20 - Winterreise, D. 911 - Nr. 20. Der Wegweiser.flac" WAVE
    TRACK 20 AUDIO
    TITLE "Winterreise, D. 911: Nr. 20. Der Wegweiser"
    PERFORMER "Dietrich Fischer-Dieskau (baritone), Daniel Barenboim (piano)"
    REM DATE 1979
    INDEX 01 00:00:00
    FILE "21 - Winterreise, D. 911 - Nr. 21. Das Wirtshaus.flac" WAVE
    TRACK 21 AUDIO
    TITLE "Winterreise, D. 911: Nr. 21. Das Wirtshaus"
    PERFORMER "Dietrich Fischer-Dieskau (baritone), Daniel Barenboim (piano)"
    REM DATE 1979
    INDEX 01 00:00:00
    FILE "22 - Winterreise, D. 911 - Nr. 22. Mut!.flac" WAVE
    TRACK 22 AUDIO
    TITLE "Winterreise, D. 911: Nr. 22. Mut!"
    PERFORMER "Dietrich Fischer-Dieskau (baritone), Daniel Barenboim (piano)"
    REM DATE 1979
    INDEX 01 00:00:00
    FILE "23 - Winterreise, D. 911 - Nr. 23. Die Nebensonnen.flac" WAVE
    TRACK 23 AUDIO
    TITLE "Winterreise, D. 911: Nr. 23. Die Nebensonnen"
    PERFORMER "Dietrich Fischer-Dieskau (baritone), Daniel Barenboim (piano)"
    REM DATE 1979
    INDEX 01 00:00:00
    FILE "24 - Winterreise, D. 911 - Nr. 24. Der Leiermann.flac" WAVE
    TRACK 24 AUDIO
    TITLE "Winterreise, D. 911: Nr. 24. Der Leiermann"
    PERFORMER "Dietrich Fischer-Dieskau (baritone), Daniel Barenboim (piano)"
    REM DATE 1979
    INDEX 01 00:00:00
    -
    Franz Schubert — каталог раздач на rutracker.orgВсе мои раздачи / All my releases



  • Показать сообщения:    

    Текущее время: 10-Дек 23:32

    Часовой пояс: UTC + 3


    Вы не можете начинать темы
    Вы не можете отвечать на сообщения
    Вы не можете редактировать свои сообщения
    Вы не можете удалять свои сообщения
    Вы не можете голосовать в опросах
    Вы не можете прикреплять файлы к сообщениям
    Вы не можете скачивать файлы