(Classical / Choral) Mozart - Requiem / Моцарт - Реквием (Sena Jurinac, Lucretia West, Hans Loeffler, Frederick Guthrie, Wiener Akademie-Kammerchor, Wiener Staatsopernorchester, Hermann Scherchen, 1958) - 1996, FLAC (image+.cue) lossless


Статистика раздачи [Обновить пиров]
Размер:  283 MB   |    Зарегистрирован:  8 месяцев 24 дня   |    Скачан:  0 раз

Полного источника не было: Никогда

 
   
 
 
 

[Цитировать]

Wolfgang Amadeus Mozart | Вольфганг Амадей Моцарт
(1756–1791)



Requiem | Реквием


Sena Jurinac sopranoLucretia West contralto
Hans Loeffler tenorFrederick Guthrie bass
Wiener Akademie-Kammerchor (Günther Theuring chorus master)
Wiener Staatsopernorchester
Hermann Scherchen conductor


Жанр: Classical / Choral
Дата и место записи: Mozart-Saal, Konzerthaus, Wien, 13–15 June 1958
Формат записи: ADD, Stereo
Год издания диска: 1996
Издатель (лейбл): MCA/BMG
Номер по каталогу: MCD80083
Аудиокодек: FLAC
Тип рипа: image+.cue
Битрейт аудио: lossless
Продолжительность: 1:02:47
Наличие сканов в содержимом раздачи: да
Источник: блог OdeonMusic


Tracklist / Треклист
Requiem, KV 626 - 1:02:47
I. Introitus: Requiem aeternam - 7:02
  • II. Kyrie - 3:11
  • III. Sequentia: Dies irae - 1:43
  • Tuba mirum - 5:11
  • Rex tremendae - 1:53
  • Recordare - 7:24
  • Confutatis - 3:12
  • Lacrimosa - 2:46
  • IV. Offertorium: Domine Jesu - 4:55
  • Hostias - 4:17
  • V. Sanctus - 1:26
  • VI. Benedictus - 7:54
  • VII. Agnus Dei - 4:29
  • VIII. Communio: Lux aeterna - 7:23

    -

    EAC log / Отчёт EAC

    Exact Audio Copy V1.0 beta 3 from 29. August 2011
    EAC extraction logfile from 9. January 2014, 19:08
    Hermann Scherchen / Mozart - Requiem - Hermann Scherchen
    Used drive : TSSTcorpCDDVDW SH-222BB Adapter: 2 ID: 1
    Read mode : Secure
    Utilize accurate stream : Yes
    Defeat audio cache : Yes
    Make use of C2 pointers : No
    Read offset correction : 6
    Overread into Lead-In and Lead-Out : No
    Fill up missing offset samples with silence : Yes
    Delete leading and trailing silent blocks : No
    Null samples used in CRC calculations : Yes
    Used interface : Native Win32 interface for Win NT & 2000
    Used output format : User Defined Encoder
    Selected bitrate : 1024 kBit/s
    Quality : High
    Add ID3 tag : No
    Command line compressor : C:\Program Files\Exact Audio Copy\Flac\flac.exe
    Additional command line options : -8 -V -T "TITLE=%title%" -T "ARTIST=%artist%" -T "ALBUMARTIST=%albumartist%" -T "ALBUM=%albumtitle%" -T "DATE=%year%" -T "TRACKNUMBER=%tracknr%" -T "TRACKTOTAL=%numtracks%" -T "GENRE=%genre%" -T "COMMENT=%comment%" -T "PERFORMER=%albuminterpret%" -T "COMPOSER=%composer%" %source% -o %dest%
    TOC of the extracted CD
    Track | Start | Length | Start sector | End sector
    ---------------------------------------------------------
    1 | 0:00.00 | 7:01.70 | 0 | 31644
    2 | 7:01.70 | 3:11.17 | 31645 | 45986
    3 | 10:13.12 | 1:43.18 | 45987 | 53729
    4 | 11:56.30 | 5:11.02 | 53730 | 77056
    5 | 17:07.32 | 1:53.10 | 77057 | 85541
    6 | 19:00.42 | 7:23.70 | 85542 | 118836
    7 | 26:24.37 | 3:11.70 | 118837 | 133231
    8 | 29:36.32 | 2:46.10 | 133232 | 145691
    9 | 32:22.42 | 4:54.60 | 145692 | 167801
    10 | 37:17.27 | 4:16.50 | 167802 | 187051
    11 | 41:34.02 | 1:26.10 | 187052 | 193511
    12 | 43:00.12 | 7:54.25 | 193512 | 229086
    13 | 50:54.37 | 4:29.25 | 229087 | 249286
    14 | 55:23.62 | 7:23.13 | 249287 | 282524
    Range status and errors
    Selected range
    Filename G:\Ripped general\[2712] Mozart – Requiem – Hermann Scherchen\Mozart - Requiem - Hermann Scherchen.wav
    Peak level 98.0 %
    Extraction speed 7.6 X
    Range quality 100.0 %
    Test CRC 8C22E9F9
    Copy CRC 8C22E9F9
    Copy OK
    No errors occurred
    AccurateRip summary
    Track 1 accurately ripped (confidence 2) [BF84DE6E] (AR v2)
    Track 2 accurately ripped (confidence 2) [27B04427] (AR v2)
    Track 3 accurately ripped (confidence 2) [7B6E4385] (AR v2)
    Track 4 accurately ripped (confidence 2) [D885A61D] (AR v2)
    Track 5 accurately ripped (confidence 2) [25B38385] (AR v2)
    Track 6 accurately ripped (confidence 2) [14D75A29] (AR v2)
    Track 7 accurately ripped (confidence 2) [1566B3AF] (AR v2)
    Track 8 accurately ripped (confidence 2) [A0F95FC0] (AR v2)
    Track 9 accurately ripped (confidence 2) [DBDC8737] (AR v2)
    Track 10 accurately ripped (confidence 2) [3BBE6EDE] (AR v2)
    Track 11 accurately ripped (confidence 2) [81189E90] (AR v2)
    Track 12 accurately ripped (confidence 2) [701F8C9F] (AR v2)
    Track 13 accurately ripped (confidence 2) [16A536BA] (AR v2)
    Track 14 accurately ripped (confidence 2) [0732B41D] (AR v2)
    All tracks accurately ripped
    End of status report

    auCDtect Task Manager log / Отчёт auCDtect Task Manager

    -----------------------
    DON'T MODIFY THIS FILE
    -----------------------
    PERFORMER: auCDtect Task Manager, ver. 1.5.1RC3 build 1.5.1.4
    Copyright (c) 2008-2010 y-soft. All rights reserved
    ANALYZER: auCDtect: CD records authenticity detector, version 0.8.2
    Copyright (c) 2004 Oleg Berngardt. All rights reserved.
    Copyright (c) 2004 Alexander Djourik. All rights reserved.
    FILE: Mozart. Requiem (Scherchen, 1958).flac
    Size: 288970228 Hash: BF1203C49162839E30C02B3B83F6B560 Accuracy: -m0
    Conclusion: CDDA 100%
    Signature: 4CE4F387564B15D15ABA720FD081E2B66274B171

    CUETools log / Отчёт CUETools

    [CUETools log; Date: 02.02.2014 22:51:51; Version: 2.1.4]
    [AccurateRip ID: 001e885b-0144d1f4-c90eb70e] found.
    Track [ CRC | V2 ] Status
    01 [b15335f2|bf84de6e] (0+3/5) Accurately ripped
    02 [05608723|27b04427] (0+3/5) Accurately ripped
    03 [24732419|7b6e4385] (0+3/5) Accurately ripped
    04 [3b908adc|d885a61d] (0+3/5) Accurately ripped
    05 [ca579e77|25b38385] (0+3/5) Accurately ripped
    06 [3affcb2b|14d75a29] (0+3/5) Accurately ripped
    07 [1475238d|1566b3af] (0+3/5) Accurately ripped
    08 [d6ff1132|a0f95fc0] (0+3/5) Accurately ripped
    09 [a0d732b0|dbdc8737] (0+3/5) Accurately ripped
    10 [66097aab|3bbe6ede] (0+3/5) Accurately ripped
    11 [8442e54b|81189e90] (0+3/5) Accurately ripped
    12 [4a77d1bd|701f8c9f] (0+3/5) Accurately ripped
    13 [86e0b5e6|16a536ba] (0+3/5) Accurately ripped
    14 [28fc9287|0732b41d] (0+3/5) Accurately ripped
    Offsetted by -870:
    01 [02a6665b] (0/5) No match (V2 was not tested)
    02 [ea0097f2] (0/5) No match (V2 was not tested)
    03 [e820113b] (0/5) No match (V2 was not tested)
    04 [971fbb16] (0/5) No match (V2 was not tested)
    05 [047c8fa0] (0/5) No match (V2 was not tested)
    06 [de93b80d] (0/5) No match (V2 was not tested)
    07 [8ddd511c] (0/5) No match (V2 was not tested)
    08 [eb8d4d89] (0/5) No match (V2 was not tested)
    09 [ad17474b] (0/5) No match (V2 was not tested)
    10 [ec14fb36] (0/5) No match (V2 was not tested)
    11 [2b18b699] (0/5) No match (V2 was not tested)
    12 [dd4b520d] (0/5) No match (V2 was not tested)
    13 [d3cac61e] (0/5) No match (V2 was not tested)
    14 [12e9513c] (0/5) No match (V2 was not tested)
    Track Peak [ CRC32 ] [W/O NULL] [ LOG ]
    -- 98,0 [8C22E9F9] [05901637] CRC32
    01 69,5 [CD59D505] [D3A4FD3B]
    02 97,9 [28689A9A] [16D9094C]
    03 94,6 [9D944883] [F9E29F6F]
    04 68,5 [C465A460] [66B02350]
    05 97,9 [53863070] [03164191]
    06 55,8 [58C9CA88] [004BA1A2]
    07 60,2 [20A26030] [85AEB33B]
    08 65,5 [2BDA90C1] [C6A56978]
    09 58,9 [5A11F327] [A6E040BF]
    10 58,9 [116155AA] [1FB1D5C3]
    11 93,5 [B58C3C7F] [D1062DE4]
    12 45,9 [B4E72D1E] [DC118135]
    13 98,0 [508150E5] [87A3FD99]
    14 98,0 [F40F922E] [A9456EDA]

    CUE sheet

    TITLE "Wolfgang Amadeus Mozart: Requiem"
    PERFORMER "Hermann Scherchen"
    REM GENRE Classical
    REM DISCID C90EB70E
    REM COMMENT "ExactAudioCopy v1.0b3"
    FILE "Mozart. Requiem (Scherchen, 1958).flac" WAVE
    TRACK 01 AUDIO
    TITLE "Requiem, KV 626: I. Introitus: Requiem aeternam"
    PERFORMER "Sena Jurinac, Wiener Akademie-Kammerchor, Wiener Staatsopernorchester & Hermann Scherchen "
    REM DATE 1958
    INDEX 01 00:00:00
    TRACK 02 AUDIO
    TITLE "Requiem, KV 626: II. Kyrie"
    PERFORMER "Wiener Akademie-Kammerchor, Wiener Staatsopernorchester & Hermann Scherchen "
    REM DATE 1958
    INDEX 01 07:01:70
    TRACK 03 AUDIO
    TITLE "Requiem, KV 626: III. Sequentia: Dies irae"
    PERFORMER "Wiener Akademie-Kammerchor, Wiener Staatsopernorchester & Hermann Scherchen "
    REM DATE 1958
    INDEX 01 10:13:12
    TRACK 04 AUDIO
    TITLE "Requiem, KV 626: Tuba mirum"
    PERFORMER "Sena Jurinac, Lucretia West, Hans Loeffler, Frederick Guthrie, Wiener Staatsopernorchester & Hermann Scherchen"
    REM DATE 1958
    INDEX 01 11:56:30
    TRACK 05 AUDIO
    TITLE "Requiem, KV 626: Rex tremendae"
    PERFORMER "Wiener Akademie-Kammerchor, Wiener Staatsopernorchester & Hermann Scherchen "
    REM DATE 1958
    INDEX 01 17:07:32
    TRACK 06 AUDIO
    TITLE "Requiem, KV 626: Recordare"
    PERFORMER "Sena Jurinac, Lucretia West, Hans Loeffler, Frederick Guthrie, Wiener Staatsopernorchester & Hermann Scherchen"
    REM DATE 1958
    INDEX 01 19:00:42
    TRACK 07 AUDIO
    TITLE "Requiem, KV 626: Confutatis"
    PERFORMER "Wiener Akademie-Kammerchor, Wiener Staatsopernorchester & Hermann Scherchen "
    REM DATE 1958
    INDEX 01 26:24:37
    TRACK 08 AUDIO
    TITLE "Requiem, KV 626: Lacrimosa"
    PERFORMER "Wiener Akademie-Kammerchor, Wiener Staatsopernorchester & Hermann Scherchen "
    REM DATE 1958
    INDEX 01 29:36:32
    TRACK 09 AUDIO
    TITLE "Requiem, KV 626: IV. Offertorium: Domine Jesu"
    PERFORMER "Sena Jurinac, Lucretia West, Hans Loeffler, Frederick Guthrie, Wiener Akademie-Kammerchor, Wiener Staatsopernorchester & Hermann Scherchen "
    REM DATE 1958
    INDEX 01 32:22:42
    TRACK 10 AUDIO
    TITLE "Requiem, KV 626: Hostias"
    PERFORMER "Wiener Akademie-Kammerchor, Wiener Staatsopernorchester & Hermann Scherchen "
    REM DATE 1958
    INDEX 01 37:17:27
    TRACK 11 AUDIO
    TITLE "Requiem, KV 626: V. Sanctus"
    PERFORMER "Wiener Akademie-Kammerchor, Wiener Staatsopernorchester & Hermann Scherchen "
    REM DATE 1958
    INDEX 01 41:34:02
    TRACK 12 AUDIO
    TITLE "Requiem, KV 626: VI. Benedictus"
    PERFORMER "Sena Jurinac, Lucretia West, Hans Loeffler, Frederick Guthrie, Wiener Akademie-Kammerchor, Wiener Staatsopernorchester & Hermann Scherchen "
    REM DATE 1958
    INDEX 01 43:00:12
    TRACK 13 AUDIO
    TITLE "Requiem, KV 626: VII. Agnus Dei"
    PERFORMER "Wiener Akademie-Kammerchor, Wiener Staatsopernorchester & Hermann Scherchen "
    REM DATE 1958
    INDEX 01 50:54:37
    TRACK 14 AUDIO
    TITLE "Requiem, KV 626: VIII. Communio: Lux aeterna"
    PERFORMER "Sena Jurinac, Wiener Akademie-Kammerchor, Wiener Staatsopernorchester & Hermann Scherchen "
    REM DATE 1958
    INDEX 01 55:23:62
    -
    Wolfgang Amadeus Mozart — каталог раздач на rutracker.orgВсе мои раздачи / All my releases
    [teatrix.ru].t18117.torrent 
    Торрент: Зарегистрирован [ 2016-03-17 00:43 ] · 99AF0A334E180EDAE2D46843A763C6494722A10B

    Скачать .torrent

    Скачать

    12 KB

    Статус: проверено
    Скачан: 0 раз
    Размер: 283 MB
    terms.php



  • Быстрый ответ

    Имя:

          
    Для отправки сообщений необходимо включить JavaScript
    Показать сообщения:    

    Текущее время: 10-Дек 04:10

    Часовой пояс: UTC + 3


    Вы можете начинать темы
    Вы можете отвечать на сообщения
    Вы не можете редактировать свои сообщения
    Вы не можете удалять свои сообщения
    Вы не можете голосовать в опросах
    Вы не можете прикреплять файлы к сообщениям
    Вы можете скачивать файлы