(Opera) Siegfried Wagner - Der Kobold / The Goblin (Bappert, Borst, Broberg, Fotiou, Fottinger, Heinzmann - Nuremberg Symphony Orchestra, Strobel) - 2007, FLAC (image+.cue) lossless


 

[Цитировать]

Siegfried Wagner - Der Kobold / The Goblin
Жанр: Op[era
Страна-производитель диска: EU
Год издания диска: 2007
Издатель (лейбл): Marco Polo
Номер по каталогу: 8.225320-31
Дата записи: 2005
Аудиокодек: FLAC
Тип рипа: image+.cue
Битрейт аудио: lossless
Продолжительность: 71'57 + 71'03 + 52'27
Источник: собственный рип
Наличие сканов в содержимом раздачи: да
Треклист:

CD1

1. Act I: Introduction
2. Act I Scene 1: Fort von hier! mussige Schaar!
3. Act I Scene 2: Madchen! Wach auf! Ist das Dein Bett
4. Act I Scene 3: Ei, ei! Das lob' ich mal mir!
5. Act I Scene 4: Bist auch mal wieder da
6. Act I Scene 5: Weh', Luftchen, weh'
7. Act I Scene 6: Ja! Munter und froh auf die Lebensleiter Zes!
8. Act I Scene 7: Lausch'! Wie Waren Sie's
9. Act I Scene 8: Hort! Jetzt geht's los! Passt auf!

CD2

1. Act II: Introduction
2. Act II Scene 1: Schnell doch! Hier fehlt's noch!
3. Act II Scene 2: Still! Vielbesung'nes Sonnen Erwachen!
4. Act II Scene 3: Die Gaste! Um Nachsicht lasst die Grafin bitten
5. Act II Scene 4: Traum' ich wieder Ist alles nur Trug
6. Act II Scene 5: Nun Mein Veilchen Noch immer allein
7. Act II Scene 6: Mir war's doch so, als hort' ich Stimmen!
8. Act II Scene 7: Aha! Laubdunkelparchen! Liebestraummarchen!
9. Act II Scene 8: Helft! Lasst ihn nicht enteilen!

CD3

1. Act III: Introduction
2. Act III Scene 1: Dort ruh' ein Weilchen!
3. Act III Scene 2: Potz Wetter, Blitz und Donner! Wir sind verirrt!
4. Act III Scene 3: Saladin hat siebzehn Sohne
Исполнители:
Siegfried Wagner (1869-1930) - Der Kobold
Marco Bappert
Martina Borst
Rebecca Broberg
Evdoxia Fotiou
Johannes Fottinger
Susanne Heinzmann
Joachim Hochbauer
Philipp Hoferichter
Achim Hoffmann
Volker Horn
Nicholas Isherwood
Heike Kohler
Ksenija Lukic
Regina Mauel
Philipp Meierhofer
Andreas Mitschke
Young Jae Park
Franziska Ulrich
Johann Winzer
Furth Heinrich-Schliemann-Gymnasiums Children's Chorus
Munich PPP Music Theatre Chorus
Nuremberg Symphony Orchestra
Frank Strobel

Лог создания рипа

CD1

Exact Audio Copy V1.0 beta 3 from 29. August 2011
EAC extraction logfile from 3. February 2014, 11:33
Siegfried Wagner / Der Kobold op.3, Strobel 2005 CD1
Used drive : TSSTcorpCDDVDW SH-216AB Adapter: 0 ID: 2
Read mode : Secure
Utilize accurate stream : Yes
Defeat audio cache : Yes
Make use of C2 pointers : No
Read offset correction : 6
Overread into Lead-In and Lead-Out : No
Fill up missing offset samples with silence : Yes
Delete leading and trailing silent blocks : No
Null samples used in CRC calculations : Yes
Used interface : Native Win32 interface for Win NT & 2000
Used output format : User Defined Encoder
Selected bitrate : 896 kBit/s
Quality : High
Add ID3 tag : Yes
Command line compressor : C:\Program Files (x86)\Exact Audio Copy\FLAC\FLAC.EXE
Additional command line options : -6 -V -T "ARTIST=%artist%" -T "TITLE=%title%" -T "ALBUM=%albumtitle%" -T "DATE=%year%" -T "TRACKNUMBER=%tracknr%" -T "GENRE=%genre%" -T "COMMENT=%comment%" -T "BAND=%albuminterpret%" -T "ALBUMARTIST=%albuminterpret%" -T "COMPOSER=%composer%" %haslyrics%--tag-from-file=LYRICS="%lyricsfile%"%haslyrics% -T "DISCNUMBER=%cdnumber%" -T "TOTALDISCS=%totalcds%" -T "TOTALTRACKS=%numtracks%" %hascover%--picture="%coverfile%"%hascover% %source% -o %dest%
TOC of the extracted CD
Track | Start | Length | Start sector | End sector
---------------------------------------------------------
1 | 0:00.00 | 2:38.67 | 0 | 11916
2 | 2:38.67 | 5:43.17 | 11917 | 37658
3 | 8:22.09 | 9:52.63 | 37659 | 82121
4 | 18:14.72 | 2:32.71 | 82122 | 93592
5 | 20:47.68 | 5:15.44 | 93593 | 117261
6 | 26:03.37 | 10:16.22 | 117262 | 163483
7 | 36:19.59 | 18:20.31 | 163484 | 246014
8 | 54:40.15 | 11:47.22 | 246015 | 299061
9 | 66:27.37 | 5:27.38 | 299062 | 323624
Range status and errors
Selected range
Filename E:\Foobar-EAC\Siegfried Wagner - Der Kobold op.3, Strobel 2005 CD1.wav
Peak level 99.9 %
Extraction speed 3.2 X
Range quality 99.9 %
Test CRC 2E92E6D8
Copy CRC 2E92E6D8
Copy OK
No errors occurred
AccurateRip summary
Track 1 accurately ripped (confidence 2) [41E5DE55] (AR v1)
Track 2 accurately ripped (confidence 2) [ED165654] (AR v1)
Track 3 accurately ripped (confidence 2) [B492FD1F] (AR v1)
Track 4 accurately ripped (confidence 2) [0E676A20] (AR v1)
Track 5 accurately ripped (confidence 2) [B30D6256] (AR v1)
Track 6 accurately ripped (confidence 2) [5DA915C0] (AR v1)
Track 7 accurately ripped (confidence 2) [B10155DB] (AR v1)
Track 8 accurately ripped (confidence 2) [384D43C9] (AR v1)
Track 9 accurately ripped (confidence 2) [F9C538DF] (AR v1)
All tracks accurately ripped
End of status report
---- CUETools DB Plugin V2.1.3
[CTDB TOCID: dW4rB6_Vp_k6VsZxLmZiFY7dWpY-] disk not present in database, Submit result: dW4rB6_Vp_k6VsZxLmZiFY7dWpY- has been uploaded
==== Log checksum CA39CCE46C2DE5D8199D542EA90C0AD90AA194AC1D755CB01E03696861799DD3 ====

CD2

Exact Audio Copy V1.0 beta 3 from 29. August 2011
EAC extraction logfile from 3. February 2014, 11:55
Siegfried Wagner / Der Kobold op.3, Strobel 2005 CD2
Used drive : TSSTcorpCDDVDW SE-208AB Adapter: 1 ID: 0
Read mode : Secure
Utilize accurate stream : Yes
Defeat audio cache : Yes
Make use of C2 pointers : No
Read offset correction : 6
Overread into Lead-In and Lead-Out : No
Fill up missing offset samples with silence : Yes
Delete leading and trailing silent blocks : No
Null samples used in CRC calculations : Yes
Used interface : Native Win32 interface for Win NT & 2000
Used output format : User Defined Encoder
Selected bitrate : 896 kBit/s
Quality : High
Add ID3 tag : Yes
Command line compressor : C:\Program Files (x86)\Exact Audio Copy\FLAC\FLAC.EXE
Additional command line options : -6 -V -T "ARTIST=%artist%" -T "TITLE=%title%" -T "ALBUM=%albumtitle%" -T "DATE=%year%" -T "TRACKNUMBER=%tracknr%" -T "GENRE=%genre%" -T "COMMENT=%comment%" -T "BAND=%albuminterpret%" -T "ALBUMARTIST=%albuminterpret%" -T "COMPOSER=%composer%" %haslyrics%--tag-from-file=LYRICS="%lyricsfile%"%haslyrics% -T "DISCNUMBER=%cdnumber%" -T "TOTALDISCS=%totalcds%" -T "TOTALTRACKS=%numtracks%" %hascover%--picture="%coverfile%"%hascover% %source% -o %dest%
TOC of the extracted CD
Track | Start | Length | Start sector | End sector
---------------------------------------------------------
1 | 0:00.00 | 2:50.50 | 0 | 12799
2 | 2:50.50 | 4:53.54 | 12800 | 34828
3 | 7:44.29 | 5:07.74 | 34829 | 57927
4 | 12:52.28 | 17:12.37 | 57928 | 135364
5 | 30:04.65 | 4:10.47 | 135365 | 154161
6 | 34:15.37 | 11:23.07 | 154162 | 205393
7 | 45:38.44 | 4:17.73 | 205394 | 224741
8 | 49:56.42 | 12:59.18 | 224742 | 283184
9 | 62:55.60 | 8:05.15 | 283185 | 319574
Range status and errors
Selected range
Filename E:\Foobar-EAC\Siegfried Wagner - Der Kobold op.3, Strobel 2005 CD2.wav
Peak level 88.3 %
Extraction speed 1.9 X
Range quality 99.9 %
Test CRC 13276894
Copy CRC 13276894
Copy OK
No errors occurred
AccurateRip summary
Track 1 accurately ripped (confidence 3) [51F8256C] (AR v1)
Track 2 accurately ripped (confidence 3) [C565D3DE] (AR v1)
Track 3 accurately ripped (confidence 3) [87BD6184] (AR v1)
Track 4 accurately ripped (confidence 3) [5535E06E] (AR v1)
Track 5 accurately ripped (confidence 3) [1C6CF652] (AR v1)
Track 6 accurately ripped (confidence 3) [CE1031E1] (AR v1)
Track 7 accurately ripped (confidence 3) [93660761] (AR v1)
Track 8 accurately ripped (confidence 3) [DB6A5005] (AR v1)
Track 9 accurately ripped (confidence 3) [D7BDEC7B] (AR v1)
All tracks accurately ripped
End of status report
---- CUETools DB Plugin V2.1.3
[CTDB TOCID: 5zpYPxunwFef_NBsdhXcSqKXQ70-] disk not present in database, Submit result: 5zpYPxunwFef_NBsdhXcSqKXQ70- has been uploaded
==== Log checksum C8C72865C06CDCCC55C88C59D44C67429C4118699403DB6EF2666DF036FFAB29 ====

CD3

Exact Audio Copy V1.0 beta 3 from 29. August 2011
EAC extraction logfile from 3. February 2014, 12:17
Siegfried Wagner / Der Kobold op. 3, Strobel 2005 CD3
Used drive : TSSTcorpCDDVDW SH-216AB Adapter: 0 ID: 2
Read mode : Secure
Utilize accurate stream : Yes
Defeat audio cache : Yes
Make use of C2 pointers : No
Read offset correction : 6
Overread into Lead-In and Lead-Out : No
Fill up missing offset samples with silence : Yes
Delete leading and trailing silent blocks : No
Null samples used in CRC calculations : Yes
Used interface : Native Win32 interface for Win NT & 2000
Used output format : User Defined Encoder
Selected bitrate : 896 kBit/s
Quality : High
Add ID3 tag : Yes
Command line compressor : C:\Program Files (x86)\Exact Audio Copy\FLAC\FLAC.EXE
Additional command line options : -6 -V -T "ARTIST=%artist%" -T "TITLE=%title%" -T "ALBUM=%albumtitle%" -T "DATE=%year%" -T "TRACKNUMBER=%tracknr%" -T "GENRE=%genre%" -T "COMMENT=%comment%" -T "BAND=%albuminterpret%" -T "ALBUMARTIST=%albuminterpret%" -T "COMPOSER=%composer%" %haslyrics%--tag-from-file=LYRICS="%lyricsfile%"%haslyrics% -T "DISCNUMBER=%cdnumber%" -T "TOTALDISCS=%totalcds%" -T "TOTALTRACKS=%numtracks%" %hascover%--picture="%coverfile%"%hascover% %source% -o %dest%
TOC of the extracted CD
Track | Start | Length | Start sector | End sector
---------------------------------------------------------
1 | 0:00.00 | 4:31.23 | 0 | 20347
2 | 4:31.23 | 19:49.31 | 20348 | 109553
3 | 24:20.54 | 10:34.58 | 109554 | 157161
4 | 34:55.37 | 17:29.38 | 157162 | 235874
Range status and errors
Selected range
Filename E:\Foobar-EAC\Siegfried Wagner - Der Kobold op. 3, Strobel 2005 CD3.wav
Peak level 97.9 %
Extraction speed 3.0 X
Range quality 100.0 %
Test CRC AB98A4AC
Copy CRC AB98A4AC
Copy OK
No errors occurred
AccurateRip summary
Track 1 accurately ripped (confidence 3) [A43A19BD] (AR v1)
Track 2 accurately ripped (confidence 3) [27A4C359] (AR v1)
Track 3 accurately ripped (confidence 3) [AE45EB8A] (AR v1)
Track 4 accurately ripped (confidence 3) [8DE3E97D] (AR v1)
All tracks accurately ripped
End of status report
---- CUETools DB Plugin V2.1.3
[CTDB TOCID: 6tg4L.o6p07z13TTZz3PphicG7w-] disk not present in database, Submit result: 6tg4L.o6p07z13TTZz3PphicG7w- has been uploaded
==== Log checksum EE319E1300772DC51F45C513D7ECA591B810BD1399B2D478ADE2E558DC44E9BB ====

Содержание индексной карты (.CUE)

CD1

REM GENRE Opera
REM DATE 2007
REM DISCID 7B10DB09
REM COMMENT "ExactAudioCopy v1.0b3"
PERFORMER "Siegfried Wagner"
TITLE "Der Kobold op.3, Strobel 2005 CD1"
FILE "Siegfried Wagner - Der Kobold op.3, Strobel 2005 CD1.flac" WAVE
TRACK 01 AUDIO
TITLE "I. Aufzug - Vorspiel"
PERFORMER "Siegfried Wagner"
ISRC HKI190703901
INDEX 01 00:00:00
TRACK 02 AUDIO
TITLE "- 1. Szene"
PERFORMER "Siegfried Wagner"
ISRC HKI190703902
INDEX 01 02:38:67
TRACK 03 AUDIO
TITLE "- 2. Szene"
PERFORMER "Siegfried Wagner"
ISRC HKI190703903
INDEX 01 08:22:09
TRACK 04 AUDIO
TITLE "- 3. Szene"
PERFORMER "Siegfried Wagner"
ISRC HKI190703904
INDEX 01 18:14:72
TRACK 05 AUDIO
TITLE "- 4. Szene"
PERFORMER "Siegfried Wagner"
ISRC HKI190703905
INDEX 01 20:47:68
TRACK 06 AUDIO
TITLE "- 5. Szene"
PERFORMER "Siegfried Wagner"
ISRC HKI190703906
INDEX 01 26:03:37
TRACK 07 AUDIO
TITLE "- 6. Szene"
PERFORMER "Siegfried Wagner"
ISRC HKI190703907
INDEX 01 36:19:59
TRACK 08 AUDIO
TITLE "- 7. Szene"
PERFORMER "Siegfried Wagner"
ISRC HKI190703907
INDEX 01 54:40:15
TRACK 09 AUDIO
TITLE "- 8. Szene"
PERFORMER "Siegfried Wagner"
ISRC HKI190703909
INDEX 01 66:27:37

CD2

REM GENRE Opera
REM DATE 2007
REM DISCID 8C10A509
REM COMMENT "ExactAudioCopy v1.0b3"
PERFORMER "Siegfried Wagner"
TITLE "Der Kobold op.3, Strobel 2005 CD2"
FILE "Siegfried Wagner - Der Kobold op.3, Strobel 2005 CD2.flac" WAVE
TRACK 01 AUDIO
TITLE "II. Aufzug - Vorspiel"
PERFORMER "Siegfried Wagner"
ISRC HKI190704001
INDEX 01 00:00:00
TRACK 02 AUDIO
TITLE "- 1. Szene"
PERFORMER "Siegfried Wagner"
ISRC HKI190704002
INDEX 01 02:50:50
TRACK 03 AUDIO
TITLE "- 2. Szene"
PERFORMER "Siegfried Wagner"
ISRC HKI190704003
INDEX 01 07:44:29
TRACK 04 AUDIO
TITLE "- 3. Szene"
PERFORMER "Siegfried Wagner"
ISRC HKI190704004
INDEX 01 12:52:28
TRACK 05 AUDIO
TITLE "- 4. Szene"
PERFORMER "Siegfried Wagner"
ISRC HKI190704005
INDEX 01 30:04:65
TRACK 06 AUDIO
TITLE "- 5. Szene"
PERFORMER "Siegfried Wagner"
ISRC HKI190704006
INDEX 01 34:15:37
TRACK 07 AUDIO
TITLE "- 6. Szene"
PERFORMER "Siegfried Wagner"
ISRC HKI190704007
INDEX 01 45:38:44
TRACK 08 AUDIO
TITLE "- 7. Szene"
PERFORMER "Siegfried Wagner"
ISRC HKI190704008
INDEX 01 49:56:42
TRACK 09 AUDIO
TITLE "- 8. Szene"
PERFORMER "Siegfried Wagner"
ISRC HKI190704009
INDEX 01 62:55:60

CD3

REM GENRE Opera
REM DATE 2007
REM DISCID 2D0C4904
REM COMMENT "ExactAudioCopy v1.0b3"
PERFORMER "Siegfried Wagner"
TITLE "Der Kobold op. 3, Strobel 2005 CD3"
FILE "Siegfried Wagner - Der Kobold op. 3, Strobel 2005 CD3.flac" WAVE
TRACK 01 AUDIO
TITLE "III. Aufzug - Vorspiel"
PERFORMER "Siegfried Wagner"
ISRC HKI190704101
INDEX 01 00:00:00
TRACK 02 AUDIO
TITLE "- 1. Szene"
PERFORMER "Siegfried Wagner"
ISRC HKI190704102
INDEX 01 04:31:23
TRACK 03 AUDIO
TITLE "- 2. Szene"
PERFORMER "Siegfried Wagner"
ISRC HKI190704102
INDEX 01 24:20:54
TRACK 04 AUDIO
TITLE "- 3. Szene"
PERFORMER "Siegfried Wagner"
ISRC HKI190704104
INDEX 01 34:55:37
Доп. информация:
Siegfried Wagner, the son of Richard Wagner and his second wife Cosima, composed seventeen operas in total, expertly written in a late romantic style saturated with the ‘feel’ of Humperdinck, who was Siegfried’s composition teacher; of Weber, Marschner, and hardly at all of Richard Wagner, wisely.
His subjects are generally drawn from medieval German sources, often preoccupied with witchcraft and magic.
It demonstrates the composer’s preoccupation with the theme of infanticide, coupled with magic and evil conflicts, only resolved by the death of the heroine.
Der Kobold (The Goblin) is Siegfried Wagner’s third opera, completed in 1903 when he was 34, and premièred in Hamburg in 1904, where it was a great success, more so than any of his later operas.
In Der Kobold he is concerned with the somewhat more recondite issue of the fate of the souls of aborted foetuses or of babies killed immediately they are born.
The notes attribute this strange operatic subject-matter to Siegfried’s having been the father of an unwanted child the year before he embarked on the opera; but it seems unlikely that he was, since he was a very active and fairly promiscuous homosexual.
He had no interest in women until his sense of duty, and his terror of his mother, led him to marry Winifred Williams, a Welsh orphan who became mistress of Bayreuth from 1931 to 1944 – the age of its greatest achievements, at least musically – in 1915, to secure the succession.
Since the Wagner family is obsessed with secrecy, it’s impossible to know the facts in detail, but it strikes me as most likely that Siegfried was of a deeply conservative disposition, as all we know about him suggests, that his homosexuality led him to take a liberal attitude on a range of social issues, and that the strain between these elements in his personality was largely responsible for his preoccupation with these matters and led him to work them out in the most coded forms of his fairy-tale operas.
Dagmar Schellenberger, Arias & Scenes from Operas of Siegfried Wagner http://teatrix.ru/viewtopic.php?t=4583505



Показать сообщения:    

Текущее время: 05-Дек 03:30

Часовой пояс: UTC + 3


Вы не можете начинать темы
Вы не можете отвечать на сообщения
Вы не можете редактировать свои сообщения
Вы не можете удалять свои сообщения
Вы не можете голосовать в опросах
Вы не можете прикреплять файлы к сообщениям
Вы не можете скачивать файлы