Мосфильм. Рождение легенды (Людмила Снигирева) [2013, Документальный, IPTVRip]


Статистика раздачи [Обновить пиров]
Размер:  1.27 GB   |    Зарегистрирован:  8 месяцев 19 дней   |    Скачан:  0 раз

Полного источника не было: Никогда

 
   
 
 
 

[Цитировать]

Мосфильм. Рождение легенды
Год выпуска: 2013
Страна: Россия. Кинокомпания "Останкино"
Жанр: Документальный
Продолжительность: 01:42:00
Перевод: Не требуется
Русские субтитры: нет
Режиссер: Людмила Снигирева
Описание: Что скрывают стены Мосфильма? Как устроена главная кинофабрика страны? И что всегда остается за кадром? - об этом наш фильм.
Сегодня киноконцерну Мосфильм исполняется 90 лет! В его павильонах рождались шедевры, в которых каждый из нас находит что-то своё, важное и незабываемое. "Я шагаю по Москве", "Летят журавли", "Белое солнце пустыни", "Тот самый Мюнхгаузен", "Ирония Судьбы…", "Бриллиантовая рука" - эти и многие другие любимые миллионами зрителей фильмы были сняты здесь.
О том, как все эти годы жил Мосфильм, расскажут звезды отечественного кино: Светлана Немоляева, Владимир Зельдин, Сергей Безруков, Евгений Стеблов, Марк Захаров, Сергей Шакуров и другие.
Нашими экскурсоводами по легендарной студии станут Леонид Ярмольник, Владимир Меньшов, Александра Захарова и Юрий Колокольников.
С ними мы заглянем во все производственные цеха, увидим, как сегодня создается кино, ставятся трюки, возводят декорации, шьют костюмы…
Доп. информация:
Автор рипа: Smeagol6666 (26.01.2014)
Формат XVID (H263) совместим со старыми видеоплеерами
Сэмпл: http://multi-up.com/947713
качество: IPTVRip
формат: AVI
Видео: XviD MPEG-4 Visual (H.263), 704x400, (16x9), ~1650 kbps, 25 fps
Аудио: MP3, ~128 kbps, 48 kHz, 2 сh stereo

MediaInfo

General
Complete name : Ё:\Мосфильм. Рождение легенды (2013).avi
Format : AVI
Format/Info : Audio Video Interleave
File size : 1.27 GiB
Duration : 1h 41mn
Overall bit rate : 1 787 Kbps
Movie name : Mosfilm.Rozhdenie.legendy (2014.01.26)
Writing application : VirtualDubMod 1.5.10.2 (build 2540/release)
Writing library : VirtualDubMod build 2540/release
Comment : IPTVRip by Smeagol6666 (2014.01.26)
Video
ID : 0
Format : MPEG-4 Visual
Format profile : Simple@L5
Format settings, BVOP : No
Format settings, QPel : No
Format settings, GMC : No warppoints
Format settings, Matrix : Default (H.263)
Codec ID : XVID
Codec ID/Hint : XviD
Duration : 1h 41mn
Bit rate : 1 650 Kbps
Width : 704 pixels
Height : 400 pixels
Display aspect ratio : 16:9
Frame rate : 25.000 fps
Color space : YUV
Chroma subsampling : 4:2:0
Bit depth : 8 bits
Scan type : Progressive
Compression mode : Lossy
Bits/(Pixel*Frame) : 0.234
Stream size : 1.18 GiB (92%)
Writing library : XviD 63
Audio
ID : 1
Format : MPEG Audio
Format version : Version 1
Format profile : Layer 3
Mode : Joint stereo
Codec ID : 55
Codec ID/Hint : MP3
Duration : 1h 41mn
Bit rate mode : Constant
Bit rate : 128 Kbps
Channel count : 2 channels
Sampling rate : 48.0 KHz
Compression mode : Lossy
Stream size : 93.4 MiB (7%)
Alignment : Split accross interleaves
Interleave, duration : 40 ms (1.00 video frame)
Interleave, preload duration : 500 ms

Скринлист

Скриншоты

[teatrix.ru].t18122.torrent 
Торрент: Зарегистрирован [ 2016-03-17 00:43 ] · 5F17A5838E7CB9404CBEF197F5FA29107447AEA2

Скачать .torrent

Скачать

13 KB

Статус: проверено
Скачан: 0 раз
Размер: 1.27 GB
terms.php



Показать сообщения:    

Текущее время: 05-Дек 03:30

Часовой пояс: UTC + 3


Вы не можете начинать темы
Вы не можете отвечать на сообщения
Вы не можете редактировать свои сообщения
Вы не можете удалять свои сообщения
Вы не можете голосовать в опросах
Вы не можете прикреплять файлы к сообщениям
Вы можете скачивать файлы