(Classical / Vocal) Franz Schubert - Lieder / Songs / Франц Шуберт - Песни (Gundula Janowitz, Ulf Rodenhauser, Irwin Gage, 1976/1977) - 1997 [2 CD], FLAC (image+.cue) lossless


 

[Цитировать]

Franz Schubert | Франц Шуберт
(1797–1828)



Lieder | Songs | Песни


Gundula Janowitz soprano
Ulf Rodenhäuser clarinetIrwin Gage piano


Жанр: Classical / Vocal
Даты и место записи: Studio Lankwitz, Berlin, 1976, 1977
Формат записи: ADD, Stereo
Год издания диска: 1997
Издатель (лейбл): Deutsche Grammophon
Номер по каталогу: 453 082-2
Аудиокодек: FLAC
Тип рипа: image+.cue
Битрейт аудио: lossless
Продолжительность: 2:03:57
Наличие сканов в содержимом раздачи: да (кроме буклета)
Источник: блог OdeonMusic

-Tracklist / ТреклистCD 1
Klaglied (Rochlitz), D. 23 - 3:16
  • Gretchen am Spinnrade (Goethe), D. 118 - 4:04
  • Des Mädchens Klage (Schiller), D. 191 - 3:26
  • An die Sonne (Baumberg), D. 270 - 3:06
  • Mignons Gesang «Kennst du das Land?» (Goethe), D. 321 - 4:46
  • Klage des Ceres (Schiller), D. 323 - 16:56
  • Abendlied der Fürstin (Mayrhofer), D. 495 - 2:28
  • An die Nachtigall (Claudius), D. 497 - 1:09
  • Wiegenlied (unknown), D. 498 - 2:56
  • Blanka (Das Mädchen) (Schlegel), D. 631 - 2:06
  • Die Liebende schreibt (Goethe), D. 673 - 2:45
  • Suleikas Gesang II «Ach, um deine feuchten Schwingen» (Willemer), D. 717 - 4:04
  • Suleikas Gesang I «Was bedeutet die Bewegung» (Willemer), D. 720 - 6:00
  • Du bist die Ruh (Rückert), D. 776 - 5:45
    _____
    Recorded: Studio Lankwitz, Berlin, October 1976 [12-14], September [6-8, 11] & December [1-5, 9, 10] 1977

    CD 2
    Die junge Nonne (Craghier), D. 828 - 4:56
  • Lied der Anne Lyle (MacDonald / S. May?), D. 830 - 3:31
  • Gesang der Norna (Scott / Spiker), D. 831 - 3:36
  • Ellens Gesang I «Raste, Krieger, Krieg ist aus» (Scott / Storck), D. 837 - 7:19
  • Ellens Gesang II «Jäger, ruhe von der Jagd!» (Scott / Storck), D. 838 - 3:04
  • Ellens Gesang III «Ave Maria» (Scott / Storck), D. 839 - 7:50
  • Die Männer sind méchant (Seidl), D. 866 Nr. 3 - 2:21
  • Lied der Mignon «Heiss mich nicht reden» (Goethe), D. 877 Nr. 2 - 3:46
  • Lied der Mignon «So lasst mich scheinen» (Goethe), D. 877 Nr. 3 - 3:36
  • Lied der Mignon «Nun wer die Sehnsucht kennt» (Goethe), D. 877 Nr. 4 - 3:29
  • Im Freien (Seidl), D. 880 - 5:39
  • Der Hirt auf dem Felsen (Müller, Chézy), D. 965 - 12:03
    _____
    Ulf Rodenhäuser (clarinet) [12]
    Recorded: Studio Lankwitz, Berlin, October 1976 [1, 2, 4-6, 8-11] & December 1977 [3, 7, 12]
    -

    EAC logs / Отчёты EACCD 1

    Exact Audio Copy V1.0 beta 3 from 29. August 2011
    EAC extraction logfile from 14. January 2014, 15:48
    Gundula Janowitz / Schubert - Lieder - Gundula Janowitz (Disc 1)
    Used drive : TSSTcorpCDDVDW SH-222BB Adapter: 2 ID: 1
    Read mode : Secure
    Utilize accurate stream : Yes
    Defeat audio cache : Yes
    Make use of C2 pointers : No
    Read offset correction : 6
    Overread into Lead-In and Lead-Out : No
    Fill up missing offset samples with silence : Yes
    Delete leading and trailing silent blocks : No
    Null samples used in CRC calculations : Yes
    Used interface : Native Win32 interface for Win NT & 2000
    Used output format : User Defined Encoder
    Selected bitrate : 1024 kBit/s
    Quality : High
    Add ID3 tag : No
    Command line compressor : C:\Program Files\Exact Audio Copy\Flac\flac.exe
    Additional command line options : -8 -V -T "TITLE=%title%" -T "ARTIST=%artist%" -T "ALBUMARTIST=%albumartist%" -T "ALBUM=%albumtitle%" -T "DATE=%year%" -T "TRACKNUMBER=%tracknr%" -T "TRACKTOTAL=%numtracks%" -T "GENRE=%genre%" -T "COMMENT=%comment%" -T "PERFORMER=%albuminterpret%" -T "COMPOSER=%composer%" %source% -o %dest%
    TOC of the extracted CD
    Track | Start | Length | Start sector | End sector
    ---------------------------------------------------------
    1 | 0:00.32 | 3:16.00 | 32 | 14731
    2 | 3:16.32 | 4:04.00 | 14732 | 33031
    3 | 7:20.32 | 3:26.00 | 33032 | 48481
    4 | 10:46.32 | 3:06.00 | 48482 | 62431
    5 | 13:52.32 | 4:46.00 | 62432 | 83881
    6 | 18:38.32 | 16:56.00 | 83882 | 160081
    7 | 35:34.32 | 2:28.00 | 160082 | 171181
    8 | 38:02.32 | 1:09.00 | 171182 | 176356
    9 | 39:11.32 | 2:56.00 | 176357 | 189556
    10 | 42:07.32 | 2:06.00 | 189557 | 199006
    11 | 44:13.32 | 2:45.00 | 199007 | 211381
    12 | 46:58.32 | 4:04.00 | 211382 | 229681
    13 | 51:02.32 | 6:00.00 | 229682 | 256681
    14 | 57:02.32 | 5:45.00 | 256682 | 282556
    Range status and errors
    Selected range
    Filename G:\Ripped general\[2733] Schubert – Lieder – Gundula Janowitz\cd1\Schubert - Lieder - Gundula Janowitz (Disc 1).wav
    Peak level 99.4 %
    Extraction speed 2.3 X
    Range quality 100.0 %
    Test CRC A504B1F8
    Copy CRC A504B1F8
    Copy OK
    No errors occurred
    AccurateRip summary
    Track 1 accurately ripped (confidence 3) [2EEC9186] (AR v2)
    Track 2 accurately ripped (confidence 3) [B517DCEB] (AR v2)
    Track 3 accurately ripped (confidence 3) [4DF0F150] (AR v2)
    Track 4 accurately ripped (confidence 3) [41BF1D87] (AR v2)
    Track 5 accurately ripped (confidence 3) [CEDBF41A] (AR v2)
    Track 6 accurately ripped (confidence 3) [DBEF3424] (AR v2)
    Track 7 accurately ripped (confidence 3) [AF8BE49C] (AR v2)
    Track 8 accurately ripped (confidence 3) [8EB22887] (AR v2)
    Track 9 accurately ripped (confidence 3) [8BE37D07] (AR v2)
    Track 10 accurately ripped (confidence 3) [527AD2F9] (AR v2)
    Track 11 accurately ripped (confidence 3) [4182D982] (AR v2)
    Track 12 accurately ripped (confidence 3) [F2FF1C26] (AR v2)
    Track 13 accurately ripped (confidence 3) [B0981933] (AR v2)
    Track 14 accurately ripped (confidence 3) [EA9D5B35] (AR v2)
    All tracks accurately ripped
    End of status report

    CD 2

    Exact Audio Copy V1.0 beta 3 from 29. August 2011
    EAC extraction logfile from 14. January 2014, 16:53
    Gundula Janowitz / Schubert - Lieder - Gundula Janowitz (Disc 2)
    Used drive : TSSTcorpCDDVDW SH-222BB Adapter: 2 ID: 1
    Read mode : Secure
    Utilize accurate stream : Yes
    Defeat audio cache : Yes
    Make use of C2 pointers : No
    Read offset correction : 6
    Overread into Lead-In and Lead-Out : No
    Fill up missing offset samples with silence : Yes
    Delete leading and trailing silent blocks : No
    Null samples used in CRC calculations : Yes
    Used interface : Native Win32 interface for Win NT & 2000
    Used output format : User Defined Encoder
    Selected bitrate : 1024 kBit/s
    Quality : High
    Add ID3 tag : No
    Command line compressor : C:\Program Files\Exact Audio Copy\Flac\flac.exe
    Additional command line options : -8 -V -T "TITLE=%title%" -T "ARTIST=%artist%" -T "ALBUMARTIST=%albumartist%" -T "ALBUM=%albumtitle%" -T "DATE=%year%" -T "TRACKNUMBER=%tracknr%" -T "TRACKTOTAL=%numtracks%" -T "GENRE=%genre%" -T "COMMENT=%comment%" -T "PERFORMER=%albuminterpret%" -T "COMPOSER=%composer%" %source% -o %dest%
    TOC of the extracted CD
    Track | Start | Length | Start sector | End sector
    ---------------------------------------------------------
    1 | 0:00.32 | 4:56.00 | 32 | 22231
    2 | 4:56.32 | 3:31.00 | 22232 | 38056
    3 | 8:27.32 | 3:36.00 | 38057 | 54256
    4 | 12:03.32 | 7:19.00 | 54257 | 87181
    5 | 19:22.32 | 3:04.00 | 87182 | 100981
    6 | 22:26.32 | 7:50.00 | 100982 | 136231
    7 | 30:16.32 | 2:21.00 | 136232 | 146806
    8 | 32:37.32 | 3:46.00 | 146807 | 163756
    9 | 36:23.32 | 3:36.00 | 163757 | 179956
    10 | 39:59.32 | 3:29.00 | 179957 | 195631
    11 | 43:28.32 | 5:39.00 | 195632 | 221056
    12 | 49:07.32 | 12:03.00 | 221057 | 275281
    Range status and errors
    Selected range
    Filename G:\Ripped general\[2733] Schubert – Lieder – Gundula Janowitz\cd2\Schubert - Lieder - Gundula Janowitz (Disc 2).wav
    Peak level 99.9 %
    Extraction speed 2.3 X
    Range quality 100.0 %
    Test CRC 9C8B646D
    Copy CRC 9C8B646D
    Copy OK
    No errors occurred
    AccurateRip summary
    Track 1 accurately ripped (confidence 3) [F2EE5A03] (AR v2)
    Track 2 accurately ripped (confidence 3) [972E2D77] (AR v2)
    Track 3 accurately ripped (confidence 3) [442659BB] (AR v2)
    Track 4 accurately ripped (confidence 3) [95235A15] (AR v2)
    Track 5 accurately ripped (confidence 3) [AB0A3DEB] (AR v2)
    Track 6 accurately ripped (confidence 3) [3A147B59] (AR v2)
    Track 7 accurately ripped (confidence 3) [EFB16009] (AR v2)
    Track 8 accurately ripped (confidence 3) [274E37A7] (AR v2)
    Track 9 accurately ripped (confidence 3) [C737AE06] (AR v2)
    Track 10 accurately ripped (confidence 3) [23E52AD6] (AR v2)
    Track 11 accurately ripped (confidence 3) [F6216897] (AR v2)
    Track 12 accurately ripped (confidence 3) [4148B4EB] (AR v2)
    All tracks accurately ripped
    End of status report

    auCDtect Task Manager logs / Отчёты auCDtect Task ManagerCD 1

    -----------------------
    DON'T MODIFY THIS FILE
    -----------------------
    PERFORMER: auCDtect Task Manager, ver. 1.5.1RC3 build 1.5.1.4
    Copyright (c) 2008-2010 y-soft. All rights reserved
    ANALYZER: auCDtect: CD records authenticity detector, version 0.8.2
    Copyright (c) 2004 Oleg Berngardt. All rights reserved.
    Copyright (c) 2004 Alexander Djourik. All rights reserved.
    FILE: Schubert. Lieder (Janowitz, Gage) - CD 1.flac
    Size: 244481104 Hash: E5487FC1315A9F5AA7E1AFE201ADE3C2 Accuracy: -m0
    Conclusion: MPEG 90%
    Signature: C21786DA0C5AC87DB01B741FEE8EC582874441C5

    CD 2

    -----------------------
    DON'T MODIFY THIS FILE
    -----------------------
    PERFORMER: auCDtect Task Manager, ver. 1.5.1RC3 build 1.5.1.4
    Copyright (c) 2008-2010 y-soft. All rights reserved
    ANALYZER: auCDtect: CD records authenticity detector, version 0.8.2
    Copyright (c) 2004 Oleg Berngardt. All rights reserved.
    Copyright (c) 2004 Alexander Djourik. All rights reserved.
    FILE: Schubert. Lieder (Janowitz, Gage) - CD 2.flac
    Size: 224696831 Hash: 451EA11F19F718C032E03E425BE296F6 Accuracy: -m0
    Conclusion: CDDA 43%
    Signature: E5977D385DEFBC565C78537631794098174ED09A

    CUETools logs / Отчёты CUEToolsCD 1

    [CUETools log; Date: 06.02.2014 20:36:59; Version: 2.1.4]
    Pregap length 00:00:32.
    [AccurateRip ID: 002055a8-0159ad07-b60eb70e] found.
    Track [ CRC | V2 ] Status
    01 [171b4e65|2eec9186] (0+4/6) Accurately ripped
    02 [627d9c30|b517dceb] (0+4/6) Accurately ripped
    03 [bb887491|4df0f150] (0+4/6) Accurately ripped
    04 [6b2a343c|41bf1d87] (0+4/6) Accurately ripped
    05 [89b90751|cedbf41a] (0+4/6) Accurately ripped
    06 [5607a4b8|dbef3424] (0+4/6) Accurately ripped
    07 [e471a2ff|af8be49c] (0+4/6) Accurately ripped
    08 [c2046459|8eb22887] (0+4/6) Accurately ripped
    09 [b1ba1415|8be37d07] (0+4/6) Accurately ripped
    10 [fa1da494|527ad2f9] (0+4/6) Accurately ripped
    11 [12adca5e|4182d982] (0+4/6) Accurately ripped
    12 [2e21c43f|f2ff1c26] (0+4/6) Accurately ripped
    13 [8d63ba65|b0981933] (0+4/6) Accurately ripped
    14 [44fa1bf7|ea9d5b35] (0+4/6) Accurately ripped
    Offsetted by -463:
    01 [fdf04f8b] (2/6) Accurately ripped
    02 [b0c4dc43] (2/6) Accurately ripped
    03 [3ad864ad] (2/6) Accurately ripped
    04 [921ba976] (2/6) Accurately ripped
    05 [6765c984] (2/6) Accurately ripped
    06 [9660f4fe] (2/6) Accurately ripped
    07 [190097d1] (2/6) Accurately ripped
    08 [4c5afce0] (2/6) Accurately ripped
    09 [1a277c57] (2/6) Accurately ripped
    10 [d82c54c9] (2/6) Accurately ripped
    11 [b435d081] (2/6) Accurately ripped
    12 [eeedac6d] (2/6) Accurately ripped
    13 [818f5f12] (2/6) Accurately ripped
    14 [cdba1bc8] (2/6) Accurately ripped
    Offsetted by -664:
    01 [3c7190a6] (0/6) No match (V2 was not tested)
    02 [e3401935] (0/6) No match (V2 was not tested)
    03 [982907ce] (0/6) No match (V2 was not tested)
    04 [04d0542f] (0/6) No match (V2 was not tested)
    05 [55f25685] (0/6) No match (V2 was not tested)
    06 [356624c2] (0/6) No match (V2 was not tested)
    07 [181d9374] (0/6) No match (V2 was not tested)
    08 [526dd0e2] (0/6) No match (V2 was not tested)
    09 [36a0652d] (0/6) No match (V2 was not tested)
    10 [0e29d3fb] (0/6) No match (V2 was not tested)
    11 [9ae56302] (0/6) No match (V2 was not tested)
    12 [c0172963] (0/6) No match (V2 was not tested)
    13 [ef7c0ccd] (0/6) No match (V2 was not tested)
    14 [9dfed30a] (0/6) No match (V2 was not tested)
    Track Peak [ CRC32 ] [W/O NULL] [ LOG ]
    -- 99,4 [A504B1F8] [8E171014] CRC32
    01 72,2 [6D55845E] [0EE17759]
    02 81,0 [0ABE04BD] [5BBE4EA0]
    03 71,8 [E64BC9BF] [E128B6D0]
    04 44,3 [523ED7D0] [2F1A64AB]
    05 80,7 [146FE688] [F2C9783A]
    06 99,4 [F9BEE616] [F923B0C3]
    07 96,2 [6AB01219] [47428022]
    08 48,1 [48B8CF00] [AEE5B94F]
    09 37,6 [2ED66F2E] [D2A8CB77]
    10 44,0 [91691BAB] [EE120218]
    11 99,1 [D8DC39C7] [387CC33E]
    12 82,9 [580B4F1F] [85C2F856]
    13 66,6 [3830B473] [300C70EF]
    14 50,1 [8CFB88EF] [C776E089]

    CD 2

    [CUETools log; Date: 06.02.2014 20:37:10; Version: 2.1.4]
    Pregap length 00:00:32.
    [AccurateRip ID: 0018bdda-00e7f7d6-af0e560c] found.
    Track [ CRC | V2 ] Status
    01 [e8cd3f6a|f2ee5a03] (0+4/6) Accurately ripped
    02 [79a9dd72|972e2d77] (0+4/6) Accurately ripped
    03 [06efd802|442659bb] (0+4/6) Accurately ripped
    04 [6a84553f|95235a15] (0+4/6) Accurately ripped
    05 [febd68c4|ab0a3deb] (0+4/6) Accurately ripped
    06 [a0f4443a|3a147b59] (0+4/6) Accurately ripped
    07 [155414da|efb16009] (0+4/6) Accurately ripped
    08 [dd9c2386|274e37a7] (0+4/6) Accurately ripped
    09 [2e634476|c737ae06] (0+4/6) Accurately ripped
    10 [45740873|23e52ad6] (0+4/6) Accurately ripped
    11 [3052d69f|f6216897] (0+4/6) Accurately ripped
    12 [3f695daa|4148b4eb] (0+4/4) Accurately ripped
    Offsetted by -1328:
    01 [57c4ed61] (0/6) No match (V2 was not tested)
    02 [1566e015] (0/6) No match (V2 was not tested)
    03 [3c6ec5e5] (0/6) No match (V2 was not tested)
    04 [57e6cb0a] (0/6) No match (V2 was not tested)
    05 [1ccd285e] (0/6) No match (V2 was not tested)
    06 [55e63846] (0/6) No match (V2 was not tested)
    07 [844e658e] (0/6) No match (V2 was not tested)
    08 [c9e159c1] (0/6) No match (V2 was not tested)
    09 [814d8c09] (0/6) No match (V2 was not tested)
    10 [1ec3a297] (0/6) No match (V2 was not tested)
    11 [4100489c] (0/6) No match (V2 was not tested)
    12 [a8ea2949] (0/4) No match (V2 was not tested)
    Offsetted by -664:
    01 [a6b3d697] (0/6) No match (V2 was not tested)
    02 [e069f40f] (0/6) No match (V2 was not tested)
    03 [48f72dec] (0/6) No match (V2 was not tested)
    04 [2eba3f4d] (0/6) No match (V2 was not tested)
    05 [8dae9eda] (0/6) No match (V2 was not tested)
    06 [885f2916] (0/6) No match (V2 was not tested)
    07 [71435331] (0/6) No match (V2 was not tested)
    08 [26efbabc] (0/6) No match (V2 was not tested)
    09 [e74ea709] (0/6) No match (V2 was not tested)
    10 [68837241] (0/6) No match (V2 was not tested)
    11 [8d9fe47b] (0/6) No match (V2 was not tested)
    12 [1fd3d5e8] (0/4) No match (V2 was not tested)
    Offsetted by -424:
    01 [e5ddfe4a] (2/6) Accurately ripped
    02 [a7852081] (2/6) Accurately ripped
    03 [5650f146] (0/6) No match (V2 was not tested)
    04 [5312053a] (2/6) Accurately ripped
    05 [9184ffc6] (2/6) Accurately ripped
    06 [f458a9d5] (2/6) Accurately ripped
    07 [3041fdba] (2/6) Accurately ripped
    08 [b75e2372] (2/6) Accurately ripped
    09 [c2a985af] (2/6) Accurately ripped
    10 [8e61dbfc] (2/6) Accurately ripped
    11 [2ddc7082] (2/6) Accurately ripped
    12 [8ac72362] (0/4) No match (V2 was not tested)
    Track Peak [ CRC32 ] [W/O NULL] [ LOG ]
    -- 99,9 [9C8B646D] [2B10196A] CRC32
    01 94,2 [7C581DBF] [39C30797]
    02 35,4 [03E409DE] [C3E570A6]
    03 77,0 [056E9611] [9533C11A]
    04 51,8 [18C5D1BA] [89F85C9A]
    05 50,4 [E3B021C8] [72DE7C55]
    06 38,9 [CC40B709] [4B931F04]
    07 84,8 [CB899D07] [349EEA45]
    08 53,8 [36CAEE75] [2AF3727D]
    09 52,2 [55ADBF7B] [C2F49657]
    10 64,9 [59768ECB] [C7833157]
    11 49,5 [86C067E9] [9188A03C]
    12 99,9 [130DDBC6] [9D8A2AD1]

    CUE sheetsCD 1

    TITLE "Franz Schubert: Lieder"
    PERFORMER "Gundula Janowitz"
    REM GENRE Classical
    REM DISCID B60EB70E
    REM COMMENT "ExactAudioCopy v1.0b3"
    FILE "Schubert. Lieder (Janowitz, Gage) - CD 1.flac" WAVE
    TRACK 01 AUDIO
    TITLE "Klaglied (Rochlitz), D. 23"
    PERFORMER "Gundula Janowitz (soprano), Irwin Gage (piano)"
    REM DATE 1977
    INDEX 00 00:00:00
    INDEX 01 00:00:32
    TRACK 02 AUDIO
    TITLE "Gretchen am Spinnrade (Goethe), D. 118"
    PERFORMER "Gundula Janowitz (soprano), Irwin Gage (piano)"
    REM DATE 1977
    INDEX 01 03:16:32
    TRACK 03 AUDIO
    TITLE "Des Mädchens Klage (Schiller), D. 191"
    PERFORMER "Gundula Janowitz (soprano), Irwin Gage (piano)"
    REM DATE 1977
    INDEX 01 07:20:32
    TRACK 04 AUDIO
    TITLE "An die Sonne (Baumberg), D. 270"
    PERFORMER "Gundula Janowitz (soprano), Irwin Gage (piano)"
    REM DATE 1977
    INDEX 01 10:46:32
    TRACK 05 AUDIO
    TITLE "Mignons Gesang «Kennst du das Land?» (Goethe), D. 321"
    PERFORMER "Gundula Janowitz (soprano), Irwin Gage (piano)"
    REM DATE 1977
    INDEX 01 13:52:32
    TRACK 06 AUDIO
    TITLE "Klage des Ceres (Schiller), D. 323"
    PERFORMER "Gundula Janowitz (soprano), Irwin Gage (piano)"
    REM DATE 1977
    INDEX 01 18:38:32
    TRACK 07 AUDIO
    TITLE "Abendlied der Fürstin (Mayrhofer), D. 495"
    PERFORMER "Gundula Janowitz (soprano), Irwin Gage (piano)"
    REM DATE 1977
    INDEX 01 35:34:32
    TRACK 08 AUDIO
    TITLE "An die Nachtigall (Claudius), D. 497"
    PERFORMER "Gundula Janowitz (soprano), Irwin Gage (piano)"
    REM DATE 1977
    INDEX 01 38:02:32
    TRACK 09 AUDIO
    TITLE "Wiegenlied (unknown), D. 498"
    PERFORMER "Gundula Janowitz (soprano), Irwin Gage (piano)"
    REM DATE 1977
    INDEX 01 39:11:32
    TRACK 10 AUDIO
    TITLE "Blanka (Das Mädchen) (Schlegel), D. 631"
    PERFORMER "Gundula Janowitz (soprano), Irwin Gage (piano)"
    REM DATE 1977
    INDEX 01 42:07:32
    TRACK 11 AUDIO
    TITLE "Die Liebende schreibt (Goethe), D. 673"
    PERFORMER "Gundula Janowitz (soprano), Irwin Gage (piano)"
    REM DATE 1977
    INDEX 01 44:13:32
    TRACK 12 AUDIO
    TITLE "Suleikas Gesang II «Ach, um deine feuchten Schwingen» (Willemer), D. 717"
    PERFORMER "Gundula Janowitz (soprano), Irwin Gage (piano)"
    REM DATE 1976
    INDEX 01 46:58:32
    TRACK 13 AUDIO
    TITLE "Suleikas Gesang I «Was bedeutet die Bewegung» (Willemer), D. 720"
    PERFORMER "Gundula Janowitz (soprano), Irwin Gage (piano)"
    REM DATE 1976
    INDEX 01 51:02:32
    TRACK 14 AUDIO
    TITLE "Du bist die Ruh (Rückert), D. 776"
    PERFORMER "Gundula Janowitz (soprano), Irwin Gage (piano)"
    REM DATE 1976
    INDEX 01 57:02:32

    CD 2

    TITLE "Franz Schubert: Lieder"
    PERFORMER "Gundula Janowitz"
    REM GENRE Classical
    REM DISCID AF0E560C
    REM COMMENT "ExactAudioCopy v1.0b3"
    FILE "Schubert. Lieder (Janowitz, Gage) - CD 2.flac" WAVE
    TRACK 01 AUDIO
    TITLE "Die junge Nonne (Craghier), D. 828"
    PERFORMER "Gundula Janowitz (soprano), Irwin Gage (piano)"
    REM DATE 1976
    INDEX 00 00:00:00
    INDEX 01 00:00:32
    TRACK 02 AUDIO
    TITLE "Lied der Anne Lyle (MacDonald / S. May?), D. 830"
    PERFORMER "Gundula Janowitz (soprano), Irwin Gage (piano)"
    REM DATE 1976
    INDEX 01 04:56:32
    TRACK 03 AUDIO
    TITLE "Gesang der Norna (Scott / Spiker), D. 831"
    PERFORMER "Gundula Janowitz (soprano), Irwin Gage (piano)"
    REM DATE 1977
    INDEX 01 08:27:32
    TRACK 04 AUDIO
    TITLE "Ellens Gesang I «Raste, Krieger, Krieg ist aus» (Scott / Storck), D. 837"
    PERFORMER "Gundula Janowitz (soprano), Irwin Gage (piano)"
    REM DATE 1976
    INDEX 01 12:03:32
    TRACK 05 AUDIO
    TITLE "Ellens Gesang II «Jäger, ruhe von der Jagd!» (Scott / Storck), D. 838"
    PERFORMER "Gundula Janowitz (soprano), Irwin Gage (piano)"
    REM DATE 1976
    INDEX 01 19:22:32
    TRACK 06 AUDIO
    TITLE "Ellens Gesang III «Ave Maria» (Scott / Storck), D. 839"
    PERFORMER "Gundula Janowitz (soprano), Irwin Gage (piano)"
    REM DATE 1976
    INDEX 01 22:26:32
    TRACK 07 AUDIO
    TITLE "Die Männer sind méchant (Seidl), D. 866 Nr. 3"
    PERFORMER "Gundula Janowitz (soprano), Irwin Gage (piano)"
    REM DATE 1977
    INDEX 01 30:16:32
    TRACK 08 AUDIO
    TITLE "Lied der Mignon «Heiss mich nicht reden» (Goethe), D. 877 Nr. 2"
    PERFORMER "Gundula Janowitz (soprano), Irwin Gage (piano)"
    REM DATE 1976
    INDEX 01 32:37:32
    TRACK 09 AUDIO
    TITLE "Lied der Mignon «So lasst mich scheinen» (Goethe), D. 877 Nr. 3"
    PERFORMER "Gundula Janowitz (soprano), Irwin Gage (piano)"
    REM DATE 1976
    INDEX 01 36:23:32
    TRACK 10 AUDIO
    TITLE "Lied der Mignon «Nun wer die Sehnsucht kennt» (Goethe), D. 877 Nr. 4"
    PERFORMER "Gundula Janowitz (soprano), Irwin Gage (piano)"
    REM DATE 1976
    INDEX 01 39:59:32
    TRACK 11 AUDIO
    TITLE "Im Freien (Seidl), D. 880"
    PERFORMER "Gundula Janowitz (soprano), Irwin Gage (piano)"
    REM DATE 1976
    INDEX 01 43:28:32
    TRACK 12 AUDIO
    TITLE "Der Hirt auf dem Felsen (Müller, Chézy), D. 965"
    PERFORMER "Gundula Janowitz (soprano), Ulf Rodenhäuser (clarinet), Irwin Gage (piano)"
    REM DATE 1977
    INDEX 01 49:07:32
    -
    Franz Schubert — каталог раздач на rutracker.orgВсе мои раздачи / All my releases



  • Показать сообщения:    

    Текущее время: 10-Дек 15:50

    Часовой пояс: UTC + 3


    Вы не можете начинать темы
    Вы не можете отвечать на сообщения
    Вы не можете редактировать свои сообщения
    Вы не можете удалять свои сообщения
    Вы не можете голосовать в опросах
    Вы не можете прикреплять файлы к сообщениям
    Вы не можете скачивать файлы