(Classical) [LP] [24/192] Галина Вишневская - Раритеты/Galina Vishnevskaya – Rarities - 1960, 1961, FLAC (image+.cue), (dual mono)


Статистика раздачи [Обновить пиров]
Размер:  3.45 GB   |    Зарегистрирован:  8 месяцев 19 дней   |    Скачан:  0 раз

Полного источника не было: Никогда

 
   
 
 
 

[Цитировать]

Galina VishnevskayaRarities

Жанр: Classical
Год выпуска: 1960, 1961
Лейбл: RCA RB-16271, Artia AL-157
Страна-производитель: England
Аудио кодек: FLAC
Тип рипа: image+.cue
Формат записи: 24/192 dual mono
Формат раздачи: 24/192 dual mono

Галина Вишневская - Арии и романсы Бетховена, Беллини, Бойто, Дебюсси, Форе, Пуччини, Верди и Вилла-Лобоса(1960)

Galina VishnevskayaArias by Bellini, Beethoven, Verdi, Puccini, Boito and Songs by Fare, Debussy, Villa-Lobos
Жанр: Classical
Год выпуска: 1960
Лейбл: Artia AL-157
Страна-производитель: England
Аудио кодек: FLAC
Тип рипа: image+.cue
Формат записи: 24/192 dual mono
Формат раздачи: 24/192 dual mono
Продолжительность: 00:44:52
Треклист:
A1 Bellini - Norma: Casta Diva
A2 Verdi - La Forza del Destino: Pace, Pace mio Dio
A3 Puccini - Manon Lescaut: Sola, perduta, abbandonata
A4 Boito - Mefistofele: L'altra notte in fondo al mare
B1 Villa-Lobos - Bachianas Brasileiras No.5 (Mstislav Rastropovich, cello solo)
B2 Faure - Apres un reve
B3 Debussy - Beau Soir
B4 Beethoven - Fidello: "Abscheulicher!"
Soprano: Galina Vishnevskaya
Cello: Mstislav Rastropovich
Orchestra: Bolshoi Theater Orchestra
Conductor: Boris Khaikin (A1-A4)
Conductor: Melik Pashayev (B1-B4)
Recorded in the USSR

Technical details

Источник оцифровки: оцифровано Crimson74
Код класса состояния винила: Good
Устройство воспроизведения: Technics SP-10 MK2
Головка звукоснимателя: Audio Technica ML180
Предварительный усилитель: Kora 3T SE MM
АЦП: Edirol R-44
Обработка: ручная чистка

DR

foobar2000 1.1.8 / Dynamic Range Meter 1.1.1
log date: 2014-03-13 21:54:17
--------------------------------------------------------------------------------
Analyzed: Galina Vishnevskaya / Galina Vishnevskaya
--------------------------------------------------------------------------------
DR Peak RMS Duration Track
--------------------------------------------------------------------------------
DR12 -3.77 dB -22.98 dB 6:50 01-Bellini - Norma: Casta Diva
DR13 -3.04 dB -21.79 dB 5:58 02-Verdi - La Forza del Destine: Pace, Pace Mio Dio
DR11 -3.76 dB -20.24 dB 5:40 03-Puccini - Manon Lescaut: Sola Perduta, Abbandonata
DR13 -3.04 dB -22.75 dB 7:11 04-Boito - Mefistofele: L'Altra Notte In Fondo Al Mare
DR11 -3.27 dB -19.63 dB 6:31 05-Villa-Lobos - Bachianas Brasileiras No.5 (Mstislav Rastropovich, cello solo)
DR10 -3.68 dB -20.06 dB 2:59 06-Faure - Apres un reve
DR12 -3.91 dB -22.50 dB 2:28 07-Debussy - Beau Soir
DR12 -2.04 dB -20.14 dB 7:18 08-Beethoven - Fidello: Abscheulicher!
--------------------------------------------------------------------------------
Number of tracks: 8
Official DR value: DR12
Samplerate: 192000 Hz
Channels: 2
Bits per sample: 24
Bitrate: 5180 kbps
Codec: FLAC
================================================================================
В файле семплов фрагменты треков A4 и B1. И не забудьте распаковать флак.

Спектр

АЧХ

Уровень

Galina VishnevskayaRachmaninoff, Shostakovich, Prokofieff, Tchaikovsky, Glinka
Жанр: Classical
Год выпуска: 1961
Лейбл: RCA RB-16271
Страна-производитель: England
Аудио кодек: FLAC
Тип рипа: image+.cue
Формат записи: 24/192 dual mono
Формат раздачи: 24/192 dual mono
Продолжительность: 00:47:08
Треклист:
A1 Oh, Cease Thy Singing, Maiden Fair, Op.4, No 4 (Rachmaninoff)
A2 I Wait for Thee, Op. 14, No.l(Rachmaninoff)
A3 Lady Macbeth of Mzensk: Katerina Izmailova's Aria (Shostakovich)
A4 The Ugly Duckling, Op. 18 (Prokofieff)
B1 Complaint of the Bride, Op.47, No.7 (Tchaikovsky)
B2 Lullaby, Op. 16, No. 1 (Tchaikovsky)
B3 Why?, Op.6, No.5 (Tchaikovsky)
B4 Barcarolle (Glinka)
B5 To Her (Glinka)
B6 Do Not Excite Me Without Cause (Glinka)
Soprano: Galina Vishnevskaya
Piano: Alexander Dedyukhin[spoiler="Technical details">

"]Galina VishnevskayaRachmaninoff, Shostakovich, Prokofieff, Tchaikovsky, Glinka
Жанр: Classical
Год выпуска: 1961
Лейбл: RCA RB-16271
Страна-производитель: England
Аудио кодек: FLAC
Тип рипа: image+.cue
Формат записи: 24/192 dual mono
Формат раздачи: 24/192 dual mono
Продолжительность: 00:47:08
Треклист:
A1 Oh, Cease Thy Singing, Maiden Fair, Op.4, No 4 (Rachmaninoff)
A2 I Wait for Thee, Op. 14, No.l(Rachmaninoff)
A3 Lady Macbeth of Mzensk: Katerina Izmailova's Aria (Shostakovich)
A4 The Ugly Duckling, Op. 18 (Prokofieff)
B1 Complaint of the Bride, Op.47, No.7 (Tchaikovsky)
B2 Lullaby, Op. 16, No. 1 (Tchaikovsky)
B3 Why?, Op.6, No.5 (Tchaikovsky)
B4 Barcarolle (Glinka)
B5 To Her (Glinka)
B6 Do Not Excite Me Without Cause (Glinka)
Soprano: Galina Vishnevskaya
Piano: Alexander Dedyukhin[spoiler="Technical details

Источник оцифровки: оцифровано Crimson74
Код класса состояния винила: Good
Устройство воспроизведения: Technics SP-10 MK2
Головка звукоснимателя: Audio Technica ML180
Предварительный усилитель: Kora 3T SE MM
АЦП: Edirol R-44
Обработка: ручная чистка

DR

foobar2000 1.1.8 / Dynamic Range Meter 1.1.1
log date: 2014-02-06 19:32:50
--------------------------------------------------------------------------------
Analyzed: Galina Vishnevskaya / Galina Vishnevskaya
--------------------------------------------------------------------------------
DR Peak RMS Duration Track
--------------------------------------------------------------------------------
DR13 -0.69 dB -20.13 dB 4:51 01-Oh, Cease Thy Singing, Maiden Fair, Op.4, No 4 (Rachmaninoff)
DR11 -2.54 dB -18.76 dB 2:14 02-I Wait for Thee, Op. 14, No.l(Rachmaninoff)
DR13 -1.82 dB -20.30 dB 5:23 03-Katerina Izmailova's Aria (Shostakovich)
DR13 -1.29 dB -20.15 dB 12:45 04-The Ugly Duckling, Op. 18 (Prokofieff)
DR10 -2.28 dB -19.31 dB 6:02 05-Complaint of the Bride, Op.47, No.7 (Tchaikovsky)
DR12 -7.14 dB -24.02 dB 4:11 06-Lullaby, Op. 16, No. 1 (Tchaikovsky)
DR12 -0.62 dB -17.65 dB 3:21 07-Why?, Op.6, No.5 (Tchaikovsky)
DR10 -4.47 dB -19.98 dB 2:37 08-Barcarolle (Glinka)
DR12 -1.63 dB -19.03 dB 1:33 09-To Her (Glinka)
DR11 -6.13 dB -23.24 dB 4:11 10-Do Not Excite Me Without Cause (Glinka)
--------------------------------------------------------------------------------
Number of tracks: 10
Official DR value: DR12
Samplerate: 192000 Hz
Channels: 2
Bits per sample: 24
Bitrate: 5034 kbps
Codec: FLAC
================================================================================
Состояние винила далеко не идеальное. Обработка практически отсутствует. Поэтому прежде чем качать, рекомендуется взять файл семплов, в котором представлены фрагменты двух первых и двух последних треков. И не забудьте распаковать flac.

Спектр

АЧХ

Уровень


Большое спасибо VH за оформление раздачи.
[teatrix.ru].t18130.torrent 
Торрент: Зарегистрирован [ 2016-03-17 00:43 ] · 5FFF24992D53DCC2172BB598D428270286794722

Скачать .torrent

Скачать

20 KB

Статус: проверено
Скачан: 0 раз
Размер: 3.45 GB
terms.php



Быстрый ответ

Имя:

      
Для отправки сообщений необходимо включить JavaScript
Показать сообщения:    

Текущее время: 05-Дек 11:27

Часовой пояс: UTC + 3


Вы можете начинать темы
Вы можете отвечать на сообщения
Вы не можете редактировать свои сообщения
Вы не можете удалять свои сообщения
Вы не можете голосовать в опросах
Вы не можете прикреплять файлы к сообщениям
Вы можете скачивать файлы