(Classical) Рубинштейн – Скрипичный концерт; Кюи – Концертная сюита / Rubinstein – Violin Concerto; Cui – Suite Concertante (Nishizaki; Halasz, Schermerhorn) - 2001 (1985), FLAC (image+.cue) lossless


Статистика раздачи [Обновить пиров]
Размер:  275 MB   |    Зарегистрирован:  8 месяцев 24 дня   |    Скачан:  0 раз

Полного источника не было: Никогда

 
   
 
 
 

[Цитировать]

Рубинштейн – Скрипичный концерт; Кюи – Концертная сюита / Rubinstein – Violin Concerto; Cui – Suite Concertante (Nishizaki; Halász, Schermerhorn)
Жанр: Classical
Страна-производитель диска: ЕС
Год издания диска: 2001 (1985, на двух разных дисках)
Издатель (лейбл): Naxos
Номер по каталогу: 8.555244
Дата записи: июль 1985 г., Братислава (1 — 3); октябрь 1984 г., Гонконг (4 —7).
Аудиокодек: FLAC
Тип рипа: image+.cue
Битрейт аудио: lossless
Продолжительность: 00:58:35
Источник: odeonmusic
Наличие сканов в содержимом раздачи: да
Треклист:
Антон Григорьевич Рубинштейн (1829 — 1894).
Скрипичный концерт G-dur, op. 46 (1857).
01. I. Moderato assai [13:19].
02. II. Andante [12:09].
03. III. Moderato assai [11:59].
Цезарь(-Вениамин) Антонович Кюи (1835 — 1918).
Концертная сюита для скрипки с оркестром, op. 25 (1884).
04. I. Intermezzo scherzando. Allegro. — Allegretto mosso. — Stesso tempo. — Tempo I. — Più lento. — Allegro [05:55].
05. II. Canzonetta. Allegretto grazioso. — Pochettino meno mosso. — Tempo I [04:17].
06. III. Cavatina. Andantino non troppo [04:13].
07. IV. Finale. Tarantella. Vivace [06:43].
Исполнители:
Takako Nishizaki (скрипка).
Рубинштейн.
Slovak Philharmonic Orchestra.
Дирижер Michael Halász.
Кюи.
Hong Kong Philharmonic Orchestra.
Дирижер Kenneth Schermerhorn.

Лог создания рипа

Exact Audio Copy V1.0 beta 3 from 29. August 2011
EAC extraction logfile from 24. December 2012, 13:06
Takako Nishizaki / A.Rubinstein, César Cui - Violin and Orchestra - Nishizaki
Used drive : TSSTcorpCDDVDW SH-222BB Adapter: 2 ID: 1
Read mode : Secure
Utilize accurate stream : Yes
Defeat audio cache : Yes
Make use of C2 pointers : No
Read offset correction : 6
Overread into Lead-In and Lead-Out : No
Fill up missing offset samples with silence : Yes
Delete leading and trailing silent blocks : No
Null samples used in CRC calculations : Yes
Used interface : Native Win32 interface for Win NT & 2000
Used output format : User Defined Encoder
Selected bitrate : 1024 kBit/s
Quality : High
Add ID3 tag : No
Command line compressor : C:\Program Files\Exact Audio Copy\Flac\flac.exe
Additional command line options : -8 -V -T "TITLE=%title%" -T "ARTIST=%artist%" -T "ALBUMARTIST=%albumartist%" -T "ALBUM=%albumtitle%" -T "DATE=%year%" -T "TRACKNUMBER=%tracknr%" -T "TRACKTOTAL=%numtracks%" -T "GENRE=%genre%" -T "COMMENT=%comment%" -T "PERFORMER=%albuminterpret%" -T "COMPOSER=%composer%" %source% -o %dest%
TOC of the extracted CD
Track | Start | Length | Start sector | End sector
---------------------------------------------------------
1 | 0:00.00 | 13:20.32 | 0 | 60031
2 | 13:20.32 | 12:07.22 | 60032 | 114578
3 | 25:27.54 | 12:04.41 | 114579 | 168919
4 | 37:32.20 | 5:55.14 | 168920 | 195558
5 | 43:27.34 | 4:17.68 | 195559 | 214901
6 | 47:45.27 | 4:13.70 | 214902 | 233946
7 | 51:59.22 | 6:41.33 | 233947 | 264054
Range status and errors
Selected range
Filename G:\Ripped general\[9297] A.Rubinstein, César Cui – Violin and Orchestra – Nishizaki\A.Rubinstein, César Cui - Violin and Orchestra - Nishizaki.wav
Peak level 100.0 %
Extraction speed 7.2 X
Range quality 100.0 %
Test CRC 78B5BF8F
Copy CRC 78B5BF8F
Copy OK
No errors occurred
AccurateRip summary
Track 1 accurately ripped (confidence 2) [279B458A] (AR v2)
Track 2 accurately ripped (confidence 2) [0C7FD69A] (AR v2)
Track 3 accurately ripped (confidence 2) [4BAB4FBB] (AR v2)
Track 4 accurately ripped (confidence 2) [13354C98] (AR v2)
Track 5 accurately ripped (confidence 2) [33516FE5] (AR v2)
Track 6 accurately ripped (confidence 2) [E1E8561F] (AR v2)
Track 7 accurately ripped (confidence 2) [EE9E9BB4] (AR v2)
All tracks accurately ripped
End of status report

Содержание индексной карты (.CUE)

REM GENRE Classical
REM DATE 2002
REM DISCID 590DC007
REM COMMENT "ExactAudioCopy v1.0b3"
PERFORMER "Takako Nishizaki"
TITLE "Anton Rubinstein & Cesar Cui – Violin and Orchestra – Nishizaki"
FILE "Anton Rubinstein & Cesar Cui – Violin and Orchestra – Nishizaki.flac" WAVE
TRACK 01 AUDIO
TITLE "Rubinstein - Violin Concerto in G, Op. 46 - I. Moderato assai"
PERFORMER "Takako Nishizaki"
INDEX 01 00:00:00
TRACK 02 AUDIO
TITLE "Rubinstein - Violin Concerto in G, Op. 46 - II. Andante"
PERFORMER "Takako Nishizaki"
INDEX 00 13:18:64
INDEX 01 13:20:32
TRACK 03 AUDIO
TITLE "Rubinstein - Violin Concerto in G, Op. 46 - III. Moderato assai"
PERFORMER "Takako Nishizaki"
INDEX 01 25:27:54
TRACK 04 AUDIO
TITLE "Cui - Suite Concertante for violin & orchestra, Op. 25 - I. Intermezzo scherzando"
PERFORMER "Takako Nishizaki"
INDEX 00 37:26:53
INDEX 01 37:32:20
TRACK 05 AUDIO
TITLE "Cui - Suite Concertante for violin & orchestra, Op. 25 - II. Canzonetta"
PERFORMER "Takako Nishizaki"
INDEX 01 43:27:34
TRACK 06 AUDIO
TITLE "Cui - Suite Concertante for violin & orchestra, Op. 25 - III. Cavatina"
PERFORMER "Takako Nishizaki"
INDEX 00 47:44:10
INDEX 01 47:45:27
TRACK 07 AUDIO
TITLE "Cui - Suite Concertante for violin & orchestra, Op. 25 - IV. Finale. Tarantella"
PERFORMER "Takako Nishizaki"
INDEX 00 51:57:30
INDEX 01 51:59:22
[teatrix.ru].t18131.torrent 
Торрент: Зарегистрирован [ 2016-03-17 00:42 ] · 002E679F7D0BC84B31B263015F454B2A7FC9F524

Скачать .torrent

Скачать

12 KB

Статус: проверено
Скачан: 0 раз
Размер: 275 MB
terms.php



Быстрый ответ

Имя:

      
Для отправки сообщений необходимо включить JavaScript
Показать сообщения:    

Текущее время: 10-Дек 11:52

Часовой пояс: UTC + 3


Вы можете начинать темы
Вы можете отвечать на сообщения
Вы не можете редактировать свои сообщения
Вы не можете удалять свои сообщения
Вы не можете голосовать в опросах
Вы не можете прикреплять файлы к сообщениям
Вы можете скачивать файлы