(Classical) Wolfgang Amadeus Mozart - Piano Concertos No.20; No.23 (Annie Fischer; Philharmonia Orchestra,Boult) - 2012(1960), FLAC (image+.cue) lossless


Статистика раздачи [Обновить пиров]
Размер:  253 MB   |    Зарегистрирован:  8 месяцев 18 дней   |    Скачан:  0 раз

Полного источника не было: Никогда

 
   
 
 
 

[Цитировать]

Wolfgang Amadeus Mozart- Piano Concertos No.20; No.23
(Annie Fischer;Philharmonia Orchestra,Boult)
Wolfgang Amadeus Mozart (1756-1791) Жанр: Classical
Страна-производитель диска: E.U.
Год издания диска: 2012
Издатель (лейбл): EMI Music Germany
Номер по каталогу: 6 36561 2
Дата записи: 13-15.II. & 22.IV. 1959, London, Abbey Road Studio No.1
Аудиокодек: FLAC
Тип рипа: image+.cue
Битрейт аудио: lossless
Продолжительность: 0:57:13
Источник: JVA
Наличие сканов в содержимом раздачи: да
Треклист:
Piano Concerto No. 20 in D minor, K. 466
01. I. Allegro (13:54)
02. II. Romanze (9:57)
03. III. Rondo (Allegro assai) (7:30)
Cadenzas: Beethoven (1,3)
Piano Concerto No. 23 in A, K. 488
04. I. Allegro (10:52)
05. II. Adagio (6:48)
06. III. Allegro assai (8:12)
Cadenza: Mozart (1)
Исполнители:
Annie Fischer, piano
Philharmonia Orchestra
Sir Adrian Boult

Лог создания рипа

Exact Audio Copy V0.99 prebeta 5 from 4. May 2009
Отчёт EAC об извлечении, выполненном 26. апреля 2013, 17:39
Annie Fischer - Sir Adrian Boult - Philharmonia Orchestra / Mozart Piano Concertos Nos 20 and 23
Дисковод: _NEC DVD_RW ND-4571A Adapter: 0 ID: 0
Режим чтения : Достоверность
Использование точного потока : Да
Отключение кэша аудио : Да
Использование указателей C2 : Нет
Коррекция смещения при чтении : 48
Способность читать области Lead-in и Lead-out : Нет
Заполнение пропущенных сэмплов тишиной : Да
Удаление блоков с тишиной в начале и конце : Нет
При вычислениях CRC использовались нулевые сэмплы : Да
Интерфейс : Встроенный Win32-интерфейс для Win NT/2000
Выходной формат : Пользовательский кодировщик
Выбранный битрейт : 768 kBit/s
Качество : Высокий
Добавление ID3-тэга : Нет
Утилита сжатия : C:\Program Files\Exact Audio Copy\Flac\flac.exe
Дополнительные параметры : -6 -V -T "ARTIST=%a" -T "TITLE=%t" -T "ALBUM=%g" -T "DATE=%y" -T "TRACKNUMBER=%n" -T "GENRE=%m" -T "COMMENT=%e" %s -o %d
TOC извлечённого CD
Трек | Старт | Длительность | Начальный сектор | Конечный сектор
---------------------------------------------------------------------
1 | 0:00.00 | 13:51.06 | 0 | 62330
2 | 13:51.06 | 9:56.64 | 62331 | 107094
3 | 23:47.70 | 7:37.23 | 107095 | 141392
4 | 31:25.18 | 10:49.31 | 141393 | 190098
5 | 42:14.49 | 6:47.67 | 190099 | 220690
6 | 49:02.41 | 8:12.16 | 220691 | 257606
Характеристики диапазона извлечения и сообщения об ошибках
Выбранный диапазон
Имя файла F:\EAC\A.Fischer - Mozart Piano Concertos Nos 20 and 23\A.Fischer - Mozart Piano Concertos Nos 20 and 23.wav
Пиковый уровень 99.8 %
Качество диапазона 100.0 %
CRC копии 21F9D7A5
Копирование... OK
Ошибок не произошло
AccurateRip: сводка
Трек 1 нет в базе данных
Трек 2 нет в базе данных
Трек 3 нет в базе данных
Трек 4 нет в базе данных
Трек 5 нет в базе данных
Трек 6 нет в базе данных
Ни одного трека нет в базе AccurateRip
Конец отчёта

Лог проверки качества


Скриншот спектра частот

[teatrix.ru].t18136.torrent 
Торрент: Зарегистрирован [ 2016-03-17 00:42 ] · 2DBB85467471959C652F2152C1E83CAFF49C814C

Скачать .torrent

Скачать

21 KB

Статус: проверено
Скачан: 0 раз
Размер: 253 MB
terms.php



Быстрый ответ

Имя:

      
Для отправки сообщений необходимо включить JavaScript
Показать сообщения:    

Текущее время: 04-Дек 13:15

Часовой пояс: UTC + 3


Вы можете начинать темы
Вы можете отвечать на сообщения
Вы не можете редактировать свои сообщения
Вы не можете удалять свои сообщения
Вы не можете голосовать в опросах
Вы не можете прикреплять файлы к сообщениям
Вы можете скачивать файлы