Сат нам расаян [2008, Кундалини йога, сат нам расаян, SATRip, RUS] (Видеоурок)


Статистика раздачи [Обновить пиров]
Размер:  670 MB   |    Зарегистрирован:  8 месяцев 18 дней   |    Скачан:  0 раз

Полного источника не было: Никогда

 
   
 
 
 

[Цитировать]

Сат нам расаян
Сат Нам Расаян - Мастер классы - Марко Кегель - 2008
Страна: Россия
Тематика: Кундалини йога, сат нам расаян
Тип раздаваемого материала: Видеоурок
Продолжительность: 2 урока по 52 минуты
Год выпуска: 2008
Язык: Русский
Перевод: Не требуется
Описание: Сат нам расаян – древнее искусство медитативного исцеления в основе которого – состояние абсолютной внутренней тишины – шунья.
С точки зрения сат нам расаян - болезнь это тенденция тела реагировать определенным образом (кашель, эмоциональный и физический стресс, болезнь) на какое –либо событие. Растворяя эту тенденцию, запускается процесс самоисцеления.
Во время сеанса целитель находится в глубоком медитативном состоянии – состоянии абсолютной внутренней тишины.
Сат Нам Расаян является одной из важнейших частей в учении Йоги Бхаджана и уходит глубоко корнями в традицию Кундалини йоги.
Сат Нам Расаян как целительское искусство сегодня открыто для всех. Чтобы учиться этому удивительному искусству не нужно никаких особенных способностей.
Сат Нам Расаян не приналежит никакой религии или школе йоги, не является магией.
Качество: SATRip
Формат: MP4
Видео кодек: H.264
Аудио кодек: AAC
Видео: MPEG4 Video (H264) 720x576 (4:3) 25fps 771kbps
Аудио: AAC 48000Hz stereo 156kbps

Отчет MediaInfo

Format : MPEG-4
Format profile : Base Media
Codec ID : isom
File size : 347 MiB
Duration : 52mn 0s
Overall bit rate mode : Variable
Overall bit rate : 933 Kbps
Encoded date : UTC 2011-05-26 23:12:16
Tagged date : UTC 2011-05-26 23:12:16
Writing application : Lavf51.12.1
Video
ID : 1
Format : AVC
Format/Info : Advanced Video Codec
Format profile : Baseline@L3.1
Format settings, CABAC : No
Format settings, ReFrames : 1 frame
Format settings, GOP : M=1, N=12
Codec ID : avc1
Codec ID/Info : Advanced Video Coding
Duration : 52mn 0s
Bit rate mode : Variable
Bit rate : 771 Kbps
Width : 720 pixels
Height : 576 pixels
Display aspect ratio : 4:3
Frame rate mode : Constant
Frame rate : 25.000 fps
Standard : PAL
Color space : YUV
Chroma subsampling : 4:2:0
Bit depth : 8 bits
Scan type : Progressive
Bits/(Pixel*Frame) : 0.074
Stream size : 287 MiB (83%)
Language : English
Encoded date : UTC 2011-05-26 23:12:16
Tagged date : UTC 2011-05-26 23:12:16
Audio
ID : 2
Format : AAC
Format/Info : Advanced Audio Codec
Format profile : LC
Codec ID : 40
Duration : 51mn 59s
Bit rate mode : Variable
Bit rate : 157 Kbps
Channel(s) : 2 channels
Channel positions : Front: L R
Sampling rate : 48.0 KHz
Compression mode : Lossy
Stream size : 58.3 MiB (17%)
Language : English
Encoded date : UTC 2011-05-26 23:12:16
Tagged date : UTC 2011-05-26 23:12:16

Скриншоты

[teatrix.ru].t18137.torrent 
Торрент: Зарегистрирован [ 2016-03-17 00:45 ] · EFDFADA9AC09B857C3EA9A578A06034B95D126C4

Скачать .torrent

Скачать

14 KB

Статус: проверено
Скачан: 0 раз
Размер: 670 MB
terms.php



Быстрый ответ

Имя:

      
Для отправки сообщений необходимо включить JavaScript
Показать сообщения:    

Текущее время: 04-Дек 00:46

Часовой пояс: UTC + 3


Вы можете начинать темы
Вы можете отвечать на сообщения
Вы не можете редактировать свои сообщения
Вы не можете удалять свои сообщения
Вы не можете голосовать в опросах
Вы не можете прикреплять файлы к сообщениям
Вы можете скачивать файлы