(Classical, sacred) Fiesta Criolla ou la restitution dʼune grande fete musicale en lʼhonneur de la Vierge de Guadalupe, a la Cathedrale de Sucre (1718) - Ensemble Elyma, Ars Longa de La Havane, Gabriel Garrido - 2005, FLAC (image+.cue) loss


Статистика раздачи [Обновить пиров]
Размер:  391 MB   |    Зарегистрирован:  8 месяцев 20 дней   |    Скачан:  0 раз

Полного источника не было: Никогда

 
   
 
 
 

[Цитировать]

Fiesta Criolla ou la restitution dʼune grande fête musicale en lʼhonneur de la Vierge de Guadalupe, à la Cathédrale de Sucre (1718) - Ensemble Elyma, Ars Longa de La Havane, Gabriel Garrido
Жанр: Classical, sacred
Страна-производитель диска: France
Год издания диска: 2005
Издатель (лейбл): K617
Номер по каталогу: K617139
Дата записи: 2002
Аудиокодек: FLAC
Тип рипа: image+.cue
Битрейт аудио: lossless
Продолжительность: 78:19
Источник: собственный рип
Наличие сканов в содержимом раздачи: да
Треклист:
Fiesta Criolla
Chavarría, Guadalupe et la ville de La Plata (1718)
Programme et déroulement de la fête
[1] I) Procession dʼentrée à la Cathédrale : les Vêpres
[2]-[4] II) Premier salut : les choeurs angéliques
[5]-[6] III) Après-midi de comédies
[7]-[10] IV) Second salut : la joie de la fête
[11] V) Second salut : la joie de la fête
[12]-[14] VI) Troisième Salut : les oiseaux chantent à Marie (lʼaube)
[15]-[16] VII) Après-midi de taureaux
[17]-[19] VIII) Quatrième salut : le triomphe de la Vierge
Исполнители:
Ensemble Elyma
Ars Longa de La Havane
Cor Vivaldi, Els Petits Cantors de Catalunya
Gabriel Garrido
direction

Лог создания рипа

Exact Audio Copy V1.0 beta 3 from 29. August 2011
EAC extraction logfile from 6. November 2013, 17:06
Ensemble Elyma; Ars Longa de La Havane; Cor Vivaldi, Els Petits Cantors de Catalunya; Gabriel Garrido / Fiesta Criolla
Used drive : HL-DT-STDVDRRW GWA-4164B Adapter: 5 ID: 0
Read mode : Secure
Utilize accurate stream : Yes
Defeat audio cache : Yes
Make use of C2 pointers : No
Read offset correction : 102
Overread into Lead-In and Lead-Out : No
Fill up missing offset samples with silence : Yes
Delete leading and trailing silent blocks : No
Null samples used in CRC calculations : Yes
Used interface : Native Win32 interface for Win NT & 2000
Used output format : User Defined Encoder
Selected bitrate : 896 kBit/s
Quality : High
Add ID3 tag : No
Command line compressor : C:\Program Files\Exact Audio Copy\FLAC\FLAC.EXE
Additional command line options : -V -8 %source%
TOC of the extracted CD
Track | Start | Length | Start sector | End sector
---------------------------------------------------------
1 | 0:00.00 | 3:16.47 | 0 | 14746
2 | 3:16.47 | 3:33.05 | 14747 | 30726
3 | 6:49.52 | 6:10.38 | 30727 | 58514
4 | 13:00.15 | 3:52.18 | 58515 | 75932
5 | 16:52.33 | 2:33.37 | 75933 | 87444
6 | 19:25.70 | 2:10.68 | 87445 | 97262
7 | 21:36.63 | 5:13.05 | 97263 | 120742
8 | 26:49.68 | 5:26.29 | 120743 | 145221
9 | 32:16.22 | 3:05.11 | 145222 | 159107
10 | 35:21.33 | 3:38.66 | 159108 | 175523
11 | 39:00.24 | 4:33.17 | 175524 | 196015
12 | 43:33.41 | 2:59.41 | 196016 | 209481
13 | 46:33.07 | 5:36.27 | 209482 | 234708
14 | 52:09.34 | 2:34.46 | 234709 | 246304
15 | 54:44.05 | 6:59.01 | 246305 | 277730
16 | 61:43.06 | 1:18.16 | 277731 | 283596
17 | 63:01.22 | 5:56.13 | 283597 | 310309
18 | 68:57.35 | 5:48.34 | 310310 | 336443
19 | 74:45.69 | 3:36.40 | 336444 | 352683
Range status and errors
Selected range
Filename D:\temp\Music\Fiesta Criolla\Fiesta Criolla.wav
Peak level 100.0 %
Extraction speed 3.1 X
Range quality 99.9 %
Test CRC 5B1CE0D5
Copy CRC 5B1CE0D5
Copy OK
No errors occurred
AccurateRip summary
Track 1 accurately ripped (confidence 3) [F106034C] (AR v2)
Track 2 accurately ripped (confidence 3) [04D9CD6E] (AR v2)
Track 3 accurately ripped (confidence 3) [C9F381C8] (AR v2)
Track 4 accurately ripped (confidence 3) [9250A94A] (AR v2)
Track 5 accurately ripped (confidence 3) [905A3A89] (AR v2)
Track 6 accurately ripped (confidence 3) [200C5FCC] (AR v2)
Track 7 accurately ripped (confidence 3) [BB550E0D] (AR v2)
Track 8 accurately ripped (confidence 3) [84237450] (AR v2)
Track 9 accurately ripped (confidence 3) [86BBDF5C] (AR v2)
Track 10 accurately ripped (confidence 3) [50B319ED] (AR v2)
Track 11 accurately ripped (confidence 3) [1E0B33B8] (AR v2)
Track 12 accurately ripped (confidence 3) [48C73E85] (AR v2)
Track 13 accurately ripped (confidence 3) [E403C785] (AR v2)
Track 14 accurately ripped (confidence 3) [5D0EC37A] (AR v2)
Track 15 accurately ripped (confidence 3) [3CD93E7B] (AR v2)
Track 16 accurately ripped (confidence 3) [F90FFD6C] (AR v2)
Track 17 accurately ripped (confidence 3) [029F9FD8] (AR v2)
Track 18 accurately ripped (confidence 3) [7EE974A3] (AR v2)
Track 19 accurately ripped (confidence 3) [7E5D9E9E] (AR v2)
All tracks accurately ripped
End of status report
==== Log checksum 226A51C522CA42768AC3FE40DE63D6338272C8F33349E5799C2BCF9A66D36ACE ====
[teatrix.ru].t18138.torrent 
Торрент: Зарегистрирован [ 2016-03-17 00:42 ] · 8CABA58AD24E5A9C61178C5568246806749C2763

Скачать .torrent

Скачать

32 KB

Статус: проверено
Скачан: 0 раз
Размер: 391 MB
terms.php



Быстрый ответ

Имя:

      
Для отправки сообщений необходимо включить JavaScript
Показать сообщения:    

Текущее время: 06-Дек 13:10

Часовой пояс: UTC + 3


Вы можете начинать темы
Вы можете отвечать на сообщения
Вы не можете редактировать свои сообщения
Вы не можете удалять свои сообщения
Вы не можете голосовать в опросах
Вы не можете прикреплять файлы к сообщениям
Вы можете скачивать файлы