The Ultimate Yogi with Travis Eliot [2011, гимнастика йогов, 12xDVDRip, ENG] (Видеоурок)


Статистика раздачи [Обновить пиров]
Размер:  9.97 GB   |    Зарегистрирован:  8 месяцев 24 дня   |    Скачан:  0 раз

Полного источника не было: Никогда

 
   
 
 
 

[Цитировать]

The Ultimate Yogi with Travis Eliot
Страна: США
Тематика: гимнастика йогов
Тип раздаваемого материала: Видеоуроки
Продолжительность: 13:12:00
Год выпуска: 2011
Язык: Английский
Перевод: Отсутствует
Описание: Гимнастика йогов в исполнении "одной из самых обсуждаемых, самых горячих новых звезд"
Доп. информация: The Ultimate Yogi, a 12 disc Yoga DVD Series
The Ultimate Yogi is the most comprehensive yoga DVD set on the market. Renowned yoga instructor Travis Eliot will take you to your physical limits and beyond on this 108-Day Journey. Each of the 14 Thematic Yoga classes are comprised of creative sequences that will challenge the expert and encourage the beginner. The Ultimate Yogi is MORE than just a fitness program, it is a transformational experience guaranteed to improve your quality of life.
Формат: MP4
Видео кодек: H.264
Аудио кодек: AAC
Видео: h.264, 848x480, 1973 Kbps
Аудио: AAC 128 kbps, 2 channels

Media InfoMedia Info для файла 01.CROSSTRAINING.mp4

Профиль формата : Base Media
Идентификатор кодека : isom
Размер файла : 978 Мбайт
Продолжительность : 1 ч. 4 м.
Режим общего битрейта : Переменный
Общий поток : 2108 Кбит/сек
Дата кодирования : UTC 2013-04-12 08:53:15
Дата пометки : UTC 2013-04-12 08:53:19
Видео
Идентификатор : 2
Формат : AVC
Формат/Информация : Advanced Video Codec
Профиль формата : Baseline@L3.1
Параметр CABAC формата : Нет
Параметр ReFrames формата : 2 кадра
Параметр GOP формата : M=1, N=24
Режим смешивания : Container profile=Baseline@3.0
Идентификатор кодека : avc1
Идентификатор кодека/Информация : Advanced Video Coding
Продолжительность : 1 ч. 4 м.
Битрейт : 1973 Кбит/сек
Ширина : 848 пикселей
Высота : 480 пикселей
Соотношение сторон : 16:9
Режим частоты кадров : Постоянный
Частота кадров : 29,970 кадров/сек
Стандарт вещания : NTSC
Цветовое пространство : YUV
Субдискретизация насыщенности : 4:2:0
Битовая глубина : 8 бит
Тип развёртки : Прогрессивная
Бит/(Пиксели*Кадры) : 0.162
Размер потока : 916 Мбайт (94%)
Язык : English
Основные цвета : BT.601 NTSC
Характеристики трансфера : BT.601
Коэффициенты матрицы : BT.601
Аудио
Идентификатор : 1
Формат : AAC
Формат/Информация : Advanced Audio Codec
Профиль формата : LC
Идентификатор кодека : 40
Продолжительность : 1 ч. 4 м.
Вид битрейта : Переменный
Битрейт : 128 Кбит/сек
Максимальный битрейт : 162 Кбит/сек
Каналы : 2 канала
Расположение каналов : Front: L R
Частота : 48,0 КГц
Метод сжатия : С потерями
Размер потока : 59,3 Мбайт (6%)
Язык : English
Текст
Идентификатор : 3
Формат : Apple text
Идентификатор кодека : text
Продолжительность : 1 ч. 0 м.
Вид битрейта : Переменный
Битрейт : 1 бит/сек
Размер потока : 313 байт (0%)
Дата кодирования : UTC 2013-04-12 08:53:19
Дата пометки : UTC 2013-04-12 08:53:19

Media Info для файла 02.CARDIO.mp4

Формат : MPEG-4
Профиль формата : Base Media
Идентификатор кодека : isom
Размер файла : 942 Мбайт
Продолжительность : 1 ч. 2 м.
Режим общего битрейта : Переменный
Общий поток : 2111 Кбит/сек
Дата кодирования : UTC 2013-04-12 09:04:55
Дата пометки : UTC 2013-04-12 09:04:59
Видео
Идентификатор : 2
Формат : AVC
Формат/Информация : Advanced Video Codec
Профиль формата : Baseline@L3.1
Параметр CABAC формата : Нет
Параметр ReFrames формата : 2 кадра
Параметр GOP формата : M=1, N=24
Режим смешивания : Container profile=Baseline@3.0
Идентификатор кодека : avc1
Идентификатор кодека/Информация : Advanced Video Coding
Продолжительность : 1 ч. 2 м.
Битрейт : 1976 Кбит/сек
Ширина : 848 пикселей
Высота : 480 пикселей
Соотношение сторон : 16:9
Режим частоты кадров : Постоянный
Частота кадров : 29,970 кадров/сек
Стандарт вещания : NTSC
Цветовое пространство : YUV
Субдискретизация насыщенности : 4:2:0
Битовая глубина : 8 бит
Тип развёртки : Прогрессивная
Бит/(Пиксели*Кадры) : 0.162
Размер потока : 882 Мбайт (94%)
Язык : English
Основные цвета : BT.601 NTSC
Характеристики трансфера : BT.601
Коэффициенты матрицы : BT.601
Аудио
Идентификатор : 1
Формат : AAC
Формат/Информация : Advanced Audio Codec
Профиль формата : LC
Идентификатор кодека : 40
Продолжительность : 1 ч. 2 м.
Вид битрейта : Переменный
Битрейт : 128 Кбит/сек
Максимальный битрейт : 161 Кбит/сек
Каналы : 2 канала
Расположение каналов : Front: L R
Частота : 48,0 КГц
Метод сжатия : С потерями
Размер потока : 57,1 Мбайт (6%)
Язык : English
Текст
Идентификатор : 3
Формат : Apple text
Идентификатор кодека : text
Продолжительность : 1 ч. 0 м.
Вид битрейта : Переменный
Битрейт : 1 бит/сек
Размер потока : 313 байт (0%)
Дата кодирования : UTC 2013-04-12 09:04:59
Дата пометки : UTC 2013-04-12 09:04:59

Media Info для файла 03.STRENGTH.mp4

Формат : MPEG-4
Профиль формата : Base Media
Идентификатор кодека : isom
Размер файла : 1000 Мбайт
Продолжительность : 1 ч. 5 м.
Режим общего битрейта : Переменный
Общий поток : 2126 Кбит/сек
Дата кодирования : UTC 2013-04-12 09:16:57
Дата пометки : UTC 2013-04-12 09:17:01
Видео
Идентификатор : 2
Формат : AVC
Формат/Информация : Advanced Video Codec
Профиль формата : Baseline@L3.1
Параметр CABAC формата : Нет
Параметр ReFrames формата : 2 кадра
Режим смешивания : Container profile=Baseline@3.0
Идентификатор кодека : avc1
Идентификатор кодека/Информация : Advanced Video Coding
Продолжительность : 1 ч. 5 м.
Битрейт : 1991 Кбит/сек
Ширина : 848 пикселей
Высота : 480 пикселей
Соотношение сторон : 16:9
Режим частоты кадров : Постоянный
Частота кадров : 29,970 кадров/сек
Стандарт вещания : NTSC
Цветовое пространство : YUV
Субдискретизация насыщенности : 4:2:0
Битовая глубина : 8 бит
Тип развёртки : Прогрессивная
Бит/(Пиксели*Кадры) : 0.163
Размер потока : 936 Мбайт (94%)
Язык : English
Основные цвета : BT.601 NTSC
Характеристики трансфера : BT.601
Коэффициенты матрицы : BT.601
Аудио
Идентификатор : 1
Формат : AAC
Формат/Информация : Advanced Audio Codec
Профиль формата : LC
Идентификатор кодека : 40
Продолжительность : 1 ч. 5 м.
Вид битрейта : Переменный
Битрейт : 128 Кбит/сек
Максимальный битрейт : 161 Кбит/сек
Каналы : 2 канала
Расположение каналов : Front: L R
Частота : 48,0 КГц
Метод сжатия : С потерями
Размер потока : 60,2 Мбайт (6%)
Язык : English
Текст
Идентификатор : 3
Формат : Apple text
Идентификатор кодека : text
Продолжительность : 1 ч. 5 м.
Вид битрейта : Переменный
Битрейт : 1 бит/сек
Размер потока : 635 байт (0%)
Дата кодирования : UTC 2013-04-12 09:17:01
Дата пометки : UTC 2013-04-12 09:17:01

Media Info для файла 04.FLEXIBILITY.mp4

Формат : MPEG-4
Профиль формата : Base Media
Идентификатор кодека : isom
Размер файла : 1,06 Гбайт
Продолжительность : 1 ч. 11 м.
Режим общего битрейта : Переменный
Общий поток : 2124 Кбит/сек
Дата кодирования : UTC 2013-04-12 09:33:40
Дата пометки : UTC 2013-04-12 09:33:45
Видео
Идентификатор : 2
Формат : AVC
Формат/Информация : Advanced Video Codec
Профиль формата : Baseline@L3.1
Параметр CABAC формата : Нет
Параметр ReFrames формата : 2 кадра
Параметр GOP формата : M=1, N=24
Режим смешивания : Container profile=Baseline@3.0
Идентификатор кодека : avc1
Идентификатор кодека/Информация : Advanced Video Coding
Продолжительность : 1 ч. 11 м.
Битрейт : 1989 Кбит/сек
Ширина : 848 пикселей
Высота : 480 пикселей
Соотношение сторон : 16:9
Режим частоты кадров : Постоянный
Частота кадров : 29,970 кадров/сек
Стандарт вещания : NTSC
Цветовое пространство : YUV
Субдискретизация насыщенности : 4:2:0
Битовая глубина : 8 бит
Тип развёртки : Прогрессивная
Бит/(Пиксели*Кадры) : 0.163
Размер потока : 1021 Мбайт (94%)
Язык : English
Основные цвета : BT.601 NTSC
Характеристики трансфера : BT.601
Коэффициенты матрицы : BT.601
Аудио
Идентификатор : 1
Формат : AAC
Формат/Информация : Advanced Audio Codec
Профиль формата : LC
Идентификатор кодека : 40
Продолжительность : 1 ч. 11 м.
Вид битрейта : Переменный
Битрейт : 128 Кбит/сек
Максимальный битрейт : 159 Кбит/сек
Каналы : 2 канала
Расположение каналов : Front: L R
Частота : 48,0 КГц
Метод сжатия : С потерями
Размер потока : 65,7 Мбайт (6%)
Язык : English
Текст
Идентификатор : 3
Формат : Apple text
Идентификатор кодека : text
Продолжительность : 1 ч. 10 м.
Вид битрейта : Переменный
Битрейт : 1 бит/сек
Размер потока : 359 байт (0%)
Дата кодирования : UTC 2013-04-12 09:33:45
Дата пометки : UTC 2013-04-12 09:33:45

Скриншоты

[teatrix.ru].t18140.torrent 
Торрент: Зарегистрирован [ 2016-03-17 00:45 ] · E1CA7182C9CD50BFA4CDE8FC41B62C933BCEB2CA

Скачать .torrent

Скачать

26 KB

Статус: проверено
Скачан: 0 раз
Размер: 9.97 GB
terms.php



Быстрый ответ

Имя:

      
Для отправки сообщений необходимо включить JavaScript
Показать сообщения:    

Текущее время: 10-Дек 04:12

Часовой пояс: UTC + 3


Вы можете начинать темы
Вы можете отвечать на сообщения
Вы не можете редактировать свои сообщения
Вы не можете удалять свои сообщения
Вы не можете голосовать в опросах
Вы не можете прикреплять файлы к сообщениям
Вы можете скачивать файлы