(Choral/Cantata/Messa) Carissimi - Cantata e Messa Sciolto havean dall'alte sponde (Naglia, Zanasi, Bertotti, Miatello - Le Istituzioni Harmoniche, Longhini) - 1995, APE (image+.cue) lossless


Статистика раздачи [Обновить пиров]
Размер:  307 MB   |    Зарегистрирован:  8 месяцев 19 дней   |    Скачан:  0 раз

Полного источника не было: Никогда

 
   
 
 
 

[Цитировать]

Carissimi - Cantata e Messa Sciolto havean dall'alte sponde
Жанр: Choral/Cantata/Messa
Страна-производитель диска: Italy
Год издания диска: 1995
Издатель (лейбл): Stradivarius
Номер по каталогу: SVS 11008
Дата записи: 1993
Аудиокодек: APE
Тип рипа: image+.cue
Битрейт аудио: lossless
Продолжительность: 65'14
Источник: собственный рип
Наличие сканов в содержимом раздачи: да
Треклист:

Missa 'Sciolto havean dall'alte sponde,' mass for 5 voices & continuo

1. Kyrie
2. Sinfonia I
3. Christe
4. Sinfonia II
5. Kyrie II
6. Sinfonia III
7. Gloria
8. Suscitavit Dominus, motet for alto, tenor, bass & continuo
9. Credo
10. Exurge, cor meum, in cithara, motet for soprano, 2 violins, viole & continuo
11. Sanctus
12. Agnus Dei
13. Ardens est cor nostrum (meum), motet for soprano, alto, tenor, bass & continuo
14. Ite, missa est

Sciolto havean dall'alte sponde I naviganti, cantata for 2 sopranos, baritone & continuo

15. Sciolto havean dall'alte sponde
16. Eran lingue di tormento
17. Amor non più
18. Due pupille che son nere
19. Non sperar, folle mio core
20. Su guancia di rosa
21. Amor non più, non più
22. Udite, udite, Amanti
23. Fosco vel copra le stelle
24. Senza speme di mercede
25. Chi d'Amor soffre i Martiri
26. A miei danni, a mia rovina
27. Chi d'Amor soffre i Martiri
28. Tacquer gl'Amanti a pena
29. Amanti, che dite?
Исполнители:
Giacomo Carissimi (1605 - 1674) - Cantata e Messa Sciolto havean dall'alte sponde
Sandro Naglia (Tenor)
Furio Zanasi (Baritone)
Lavinia Bertotti (Soprano)
Cristina Miatello (Soprano)
Ensemble Le Istituzioni Harmoniche, Verona
Marco Longhini

Лог создания рипа

Exact Audio Copy V1.0 beta 3 from 29. August 2011
EAC extraction logfile from 7. February 2014, 13:08
Carissimi / Cantata E Messa Sciolto Havean Dall'Alte Sponde, Longhini 1993
Used drive : TSSTcorpCDDVDW SH-216AB Adapter: 0 ID: 2
Read mode : Secure
Utilize accurate stream : Yes
Defeat audio cache : Yes
Make use of C2 pointers : No
Read offset correction : 6
Overread into Lead-In and Lead-Out : No
Fill up missing offset samples with silence : Yes
Delete leading and trailing silent blocks : No
Null samples used in CRC calculations : Yes
Used interface : Native Win32 interface for Win NT & 2000
Used output format : Monkey's Audio Lossless Encoder
Selected bitrate : High Lossless Compression
Quality : High
Add ID3 tag : Yes
Command line compressor : C:\Program Files (x86)\Monkey's Audio\MAC.exe
Additional command line options : %dest% -t "Artist=%artist%" -t "Title=%title%" -t "Album=%albumtitle%" -t "Year=%year%" -t "Track=%tracknr%" -t "Genre=%genre%" mac.exe %source% %dest% -c3000 -v
TOC of the extracted CD
Track | Start | Length | Start sector | End sector
---------------------------------------------------------
1 | 0:00.00 | 2:17.37 | 0 | 10311
2 | 2:17.37 | 0:50.43 | 10312 | 14104
3 | 3:08.05 | 2:01.20 | 14105 | 23199
4 | 5:09.25 | 1:21.44 | 23200 | 29318
5 | 6:30.69 | 2:06.11 | 29319 | 38779
6 | 8:37.05 | 0:54.07 | 38780 | 42836
7 | 9:31.12 | 8:30.42 | 42837 | 81128
8 | 18:01.54 | 5:17.68 | 81129 | 104971
9 | 23:19.47 | 9:16.73 | 104972 | 146744
10 | 32:36.45 | 5:50.64 | 146745 | 173058
11 | 38:27.34 | 2:31.18 | 173059 | 184401
12 | 40:58.52 | 3:43.55 | 184402 | 201181
13 | 44:42.32 | 4:01.18 | 201182 | 219274
14 | 48:43.50 | 1:01.40 | 219275 | 223889
15 | 49:45.15 | 0:56.50 | 223890 | 228139
16 | 50:41.65 | 0:57.40 | 228140 | 232454
17 | 51:39.30 | 0:52.25 | 232455 | 236379
18 | 52:31.55 | 1:16.40 | 236380 | 242119
19 | 53:48.20 | 0:52.25 | 242120 | 246044
20 | 54:40.45 | 0:34.10 | 246045 | 248604
21 | 55:14.55 | 0:48.07 | 248605 | 252211
22 | 56:02.62 | 2:30.63 | 252212 | 263524
23 | 58:33.50 | 0:32.20 | 263525 | 265944
24 | 59:05.70 | 0:43.62 | 265945 | 269231
25 | 59:49.57 | 0:27.45 | 269232 | 271301
26 | 60:17.27 | 0:40.13 | 271302 | 274314
27 | 60:57.40 | 0:23.40 | 274315 | 276079
28 | 61:21.05 | 1:15.50 | 276080 | 281754
29 | 62:36.55 | 2:37.50 | 281755 | 293579
Range status and errors
Selected range
Filename E:\Foobar-EAC\Carissimi - Cantata E Messa Sciolto Havean Dall'Alte Sponde, Longhini 1993.wav
Peak level 96.4 %
Extraction speed 3.3 X
Range quality 100.0 %
Test CRC 8A5B6510
Copy CRC 8A5B6510
Copy OK
No errors occurred
AccurateRip summary
Track 1 accurately ripped (confidence 1) [8EE01619] (AR v2)
Track 2 accurately ripped (confidence 1) [E3DCEAFF] (AR v2)
Track 3 accurately ripped (confidence 1) [28DDFE16] (AR v2)
Track 4 accurately ripped (confidence 1) [D50AE09E] (AR v2)
Track 5 accurately ripped (confidence 1) [B7B9AB0B] (AR v2)
Track 6 accurately ripped (confidence 1) [E3A44B11] (AR v2)
Track 7 accurately ripped (confidence 1) [8475DCA1] (AR v2)
Track 8 accurately ripped (confidence 1) [758E6B9A] (AR v2)
Track 9 accurately ripped (confidence 1) [0095E4C5] (AR v2)
Track 10 accurately ripped (confidence 1) [999AAA9D] (AR v2)
Track 11 accurately ripped (confidence 1) [483FBFA1] (AR v2)
Track 12 accurately ripped (confidence 1) [5189E1F7] (AR v2)
Track 13 accurately ripped (confidence 1) [26DEB6BB] (AR v2)
Track 14 accurately ripped (confidence 1) [EBACC257] (AR v2)
Track 15 accurately ripped (confidence 1) [BDDAF3AD] (AR v2)
Track 16 accurately ripped (confidence 1) [EB200D8A] (AR v2)
Track 17 accurately ripped (confidence 1) [8412356A] (AR v2)
Track 18 accurately ripped (confidence 1) [C569CE2E] (AR v2)
Track 19 accurately ripped (confidence 1) [E84C4D49] (AR v2)
Track 20 accurately ripped (confidence 1) [CE217A4E] (AR v2)
Track 21 accurately ripped (confidence 1) [1E2DF188] (AR v2)
Track 22 accurately ripped (confidence 1) [428321EC] (AR v2)
Track 23 accurately ripped (confidence 1) [35C63381] (AR v2)
Track 24 accurately ripped (confidence 1) [2B0058AF] (AR v2)
Track 25 accurately ripped (confidence 1) [C69F514F] (AR v2)
Track 26 accurately ripped (confidence 1) [6559E0B2] (AR v2)
Track 27 accurately ripped (confidence 1) [66D9B5AA] (AR v2)
Track 28 accurately ripped (confidence 1) [0EB5AA0B] (AR v2)
Track 29 accurately ripped (confidence 1) [A649D771] (AR v2)
All tracks accurately ripped
End of status report
---- CUETools DB Plugin V2.1.3
[CTDB TOCID: cvMBZJxATS7gj.9p98ZTv0AIQMA-] disk not present in database, Submit result: cvMBZJxATS7gj.9p98ZTv0AIQMA- has been uploaded
==== Log checksum 7F6CF59F312E599F56DF5E29233ED569EF15EC61D8010DF3AF56CF0534F63E43 ====

Содержание индексной карты (.CUE)

REM GENRE Chorus
REM DATE 1993
REM DISCID A50F4A1D
REM COMMENT "ExactAudioCopy v1.0b3"
PERFORMER "Carissimi"
TITLE "Cantata E Messa Sciolto Havean Dall'Alte Sponde, Longhini 1993"
FILE "Carissimi - Cantata E Messa Sciolto Havean Dall'Alte Sponde, Longhini 1993.ape" WAVE
TRACK 01 AUDIO
TITLE "Messa - Kyrie I"
PERFORMER "Carissimi"
INDEX 01 00:00:00
TRACK 02 AUDIO
TITLE "Messa - Sinfonia I"
PERFORMER "Carissimi"
INDEX 01 02:17:37
TRACK 03 AUDIO
TITLE "Messa - Christe"
PERFORMER "Carissimi"
INDEX 01 03:08:05
TRACK 04 AUDIO
TITLE "Messa - Sinfonia II"
PERFORMER "Carissimi"
INDEX 01 05:09:25
TRACK 05 AUDIO
TITLE "Messa - Kyrie II"
PERFORMER "Carissimi"
INDEX 01 06:30:69
TRACK 06 AUDIO
TITLE "Messa Sinfonia III"
PERFORMER "Carissimi"
INDEX 01 08:37:05
TRACK 07 AUDIO
TITLE "Messa - Gloria"
PERFORMER "Carissimi"
INDEX 01 09:31:12
TRACK 08 AUDIO
TITLE "Messa - Officium, Mottetto: Suscitavit Dominus"
PERFORMER "Carissimi"
INDEX 01 18:01:54
TRACK 09 AUDIO
TITLE "Messa - Credo"
PERFORMER "Carissimi"
INDEX 01 23:19:47
TRACK 10 AUDIO
TITLE "Messa - Offertorium, Mottetto: Exurge cor meum"
PERFORMER "Carissimi"
INDEX 01 32:36:45
TRACK 11 AUDIO
TITLE "Messa - Sanctus"
PERFORMER "Carissimi"
INDEX 01 38:27:34
TRACK 12 AUDIO
TITLE "Messa - Agnus Dei"
PERFORMER "Carissimi"
INDEX 01 40:58:52
TRACK 13 AUDIO
TITLE "Messa - Communio, , Mottetto: Ardens est cor nostrum"
PERFORMER "Carissimi"
INDEX 01 44:42:32
TRACK 14 AUDIO
TITLE "Messa - Ite, missa est"
PERFORMER "Carissimi"
INDEX 01 48:43:50
TRACK 15 AUDIO
TITLE "Cantata - Sciolto havean dall'alte sponde"
PERFORMER "Carissimi"
INDEX 00 49:38:13
INDEX 01 49:45:15
TRACK 16 AUDIO
TITLE "Cantata - Eran lingue di tormento"
PERFORMER "Carissimi"
INDEX 01 50:41:65
TRACK 17 AUDIO
TITLE "Cantata - Amor non più"
PERFORMER "Carissimi"
INDEX 01 51:39:30
TRACK 18 AUDIO
TITLE "Cantata - Due pupille che son nere"
PERFORMER "Carissimi"
INDEX 01 52:31:55
TRACK 19 AUDIO
TITLE "Cantata- Non sperar, folle mio core"
PERFORMER "Carissimi"
INDEX 01 53:48:20
TRACK 20 AUDIO
TITLE "Cantata- Su guancia di rosa"
PERFORMER "Carissimi"
INDEX 01 54:40:45
TRACK 21 AUDIO
TITLE "Cantata- Amor non più, non più"
PERFORMER "Carissimi"
INDEX 01 55:14:55
TRACK 22 AUDIO
TITLE "Cantata- Udite, udite, Amanti"
PERFORMER "Carissimi"
INDEX 01 56:02:62
TRACK 23 AUDIO
TITLE "Cantata- Fosco vel copra le stelle"
PERFORMER "Carissimi"
INDEX 01 58:33:50
TRACK 24 AUDIO
TITLE "Cantata- Senza sperme di mercede"
PERFORMER "Carissimi"
INDEX 01 59:05:70
TRACK 25 AUDIO
TITLE "Cantata- Chi d'Amor soffre i martiri"
PERFORMER "Carissimi"
INDEX 01 59:49:57
TRACK 26 AUDIO
TITLE "Cantata- A miel danni, a ma rovina"
PERFORMER "Carissimi"
INDEX 01 60:17:27
TRACK 27 AUDIO
TITLE "Cantata- Chi d'Amor soffre i martiri"
PERFORMER "Carissimi"
INDEX 01 60:57:40
TRACK 28 AUDIO
TITLE "Cantata- Tacquer gl'Amanti a pena"
PERFORMER "Carissimi"
INDEX 01 61:21:05
TRACK 29 AUDIO
TITLE "Cantata- Amanti, che dite"
PERFORMER "Carissimi"
INDEX 01 62:36:55
Доп. информация:
The current taste for Carissimi's secular cantatas has somewhat obscured his sacred music, and Maestro Longhini was struck by the very secular title of a Mass listed among Carissimi's works.
Upon investigation he found it was based on themes from the previously composed secular cantata, thus the correspondence of names, if not of intent and genre.
Le Istitutioni Harmoniche is an Early Music ensemble named after the famous treatise 'The Art of Counterpoint' published in 1558 by Gioseffo Zarlino.
Carissimi - Jephthah_The Judgement of Solomon_Jonah, McCreesh http://teatrix.ru/viewtopic.php?t=4643308
[teatrix.ru].t18147.torrent 
Торрент: Зарегистрирован [ 2016-03-17 00:42 ] · 1CB9418B10020130B19BC1579845C7BBE5F1E943

Скачать .torrent

Скачать

13 KB

Статус: проверено
Скачан: 0 раз
Размер: 307 MB
terms.php



Быстрый ответ

Имя:

      
Для отправки сообщений необходимо включить JavaScript
Показать сообщения:    

Текущее время: 05-Дек 03:30

Часовой пояс: UTC + 3


Вы можете начинать темы
Вы можете отвечать на сообщения
Вы не можете редактировать свои сообщения
Вы не можете удалять свои сообщения
Вы не можете голосовать в опросах
Вы не можете прикреплять файлы к сообщениям
Вы можете скачивать файлы