(Classical) Luigi Cherubini - Arias and Overtures from Florence to Paris - Maria Grazia Schiavo; Auser Musici, Carlo Ipata - 2012, FLAC (image+.cue) lossless


 

[Цитировать]

Luigi Cherubini - Arias and Overtures from Florence to Paris - Maria Grazia Schiavo; Auser Musici, Carlo Ipata
Жанр: Classical
Страна-производитель диска: UK
Год издания диска: 2012
Издатель (лейбл): Hyperion
Номер по каталогу: CDA67893
Дата записи: 2010
Аудиокодек: FLAC
Тип рипа: image+.cue
Битрейт аудио: lossless
Продолжительность: 58:07
Источник: собственный рип
Наличие сканов в содержимом раздачи: да
Треклист:
Luigi Cherubini (1760-1842)
[1]-[3] Il Giulio Sabino - Sinfonia
[4] Ifigenia in Aulide - Turbata ai dubbi accenti
[5] D'un dolce ardor la face
[6] Démophon - Ouverture
[7] Ti lascio adorato mio ben
[8] Armida abbandonata - Sinfonia
[9] Armida abbandonata - Qual da venti combattuta
[10] Il Giulio Sabino - I mesti affetti miei
[11] Mesenzio, re d'Etruria - Sinfonia
Исполнители:
Maria Grazia Schiavo soprano
Auser Musici
Carlo Ipata
conductor

Лог создания рипа

Exact Audio Copy V1.0 beta 3 from 29. August 2011
EAC extraction logfile from 10. February 2014, 17:03
Maria Grazia Schiavo; Auser Musici, Carlo Ipata / Cherubini - Arias & Overtures from Florence to Paris
Used drive : HL-DT-STDVDRRW GWA-4164B Adapter: 5 ID: 0
Read mode : Secure
Utilize accurate stream : Yes
Defeat audio cache : Yes
Make use of C2 pointers : No
Read offset correction : 102
Overread into Lead-In and Lead-Out : No
Fill up missing offset samples with silence : Yes
Delete leading and trailing silent blocks : No
Null samples used in CRC calculations : Yes
Used interface : Native Win32 interface for Win NT & 2000
Used output format : User Defined Encoder
Selected bitrate : 896 kBit/s
Quality : High
Add ID3 tag : No
Command line compressor : C:\Program Files\Exact Audio Copy\FLAC\FLAC.EXE
Additional command line options : -V -8 %source%
TOC of the extracted CD
Track | Start | Length | Start sector | End sector
---------------------------------------------------------
1 | 0:00.00 | 3:47.01 | 0 | 17025
2 | 3:47.01 | 3:36.08 | 17026 | 33233
3 | 7:23.09 | 2:17.07 | 33234 | 43515
4 | 9:40.16 | 5:56.60 | 43516 | 70275
5 | 15:37.01 | 5:01.15 | 70276 | 92865
6 | 20:38.16 | 6:35.66 | 92866 | 122556
7 | 27:14.07 | 10:39.15 | 122557 | 170496
8 | 37:53.22 | 5:02.35 | 170497 | 193181
9 | 42:55.57 | 3:51.21 | 193182 | 210527
10 | 46:47.03 | 6:12.26 | 210528 | 238453
11 | 52:59.29 | 5:06.05 | 238454 | 261408
Range status and errors
Selected range
Filename D:\temp\Music\Cherubini - Arias & Overtures from Florence to Paris\Cherubini - Arias & Overtures from Florence to Paris.wav
Peak level 97.4 %
Extraction speed 2.7 X
Range quality 100.0 %
Test CRC 5D416040
Copy CRC 5D416040
Copy OK
No errors occurred
AccurateRip summary
Track 1 accurately ripped (confidence 1) [C2546BF9] (AR v2)
Track 2 accurately ripped (confidence 1) [625880BB] (AR v2)
Track 3 accurately ripped (confidence 1) [16F6F91B] (AR v2)
Track 4 accurately ripped (confidence 1) [F313B5B3] (AR v2)
Track 5 accurately ripped (confidence 1) [25AF309D] (AR v2)
Track 6 accurately ripped (confidence 1) [DB7B8C85] (AR v2)
Track 7 accurately ripped (confidence 1) [3BF27848] (AR v2)
Track 8 accurately ripped (confidence 1) [E853F840] (AR v2)
Track 9 accurately ripped (confidence 1) [F39E6A1B] (AR v2)
Track 10 accurately ripped (confidence 1) [8254AF3B] (AR v2)
Track 11 accurately ripped (confidence 1) [CDE9D16E] (AR v2)
All tracks accurately ripped
End of status report
==== Log checksum 07B04094F624001679285687E1D44F035C6D6B43AEEF62BA38042FC9D31D85BE ====



Показать сообщения:    

Текущее время: 06-Дек 11:11

Часовой пояс: UTC + 3


Вы не можете начинать темы
Вы не можете отвечать на сообщения
Вы не можете редактировать свои сообщения
Вы не можете удалять свои сообщения
Вы не можете голосовать в опросах
Вы не можете прикреплять файлы к сообщениям
Вы не можете скачивать файлы