Феликс Соболев [2014, документальный, DVB]


Статистика раздачи [Обновить пиров]
Размер:  1.53 GB   |    Зарегистрирован:  8 месяцев 24 дня   |    Скачан:  0 раз

Полного источника не было: Никогда

 
   
 
 
 

[Цитировать]

Феликс Соболев
Год выпуска: 2014
Страна: Россия
Жанр: документальный
Продолжительность: 00:38:25
Перевод: Не требуется
Русские субтитры: нет
Описание: Легендарный режиссер Феликс Соболев полностью перевернул представление о научно-популярном кино как таковом. Он создал совершенно новый киноязык, который позже назовут кинематографом Соболева.
Фильмы Соболева Феликса Михайловича на rutracker.org:
  • Язык животных (Ф. Соболев) [1967 г., Научно-популярный, TVRip]
  • Семь шагов за горизонт (Феликс Соболев) [1968, Научно-популярный, DVB]
    Семь шагов за горизонт (Феликс Соболев) [1968, научно-популярный, TVRip]
  • Думают ли животные? (Феликс Соболев) [1970 г., Научно-популярный, DVB]
    Думают ли животные (Феликс Соболев) [1970 г., научно-популярный, TVRip]
    Думают ли животные? (Феликс Соболев) [1970, научно-популярный, TVRip]
  • Я и другие (Феликс Соболев) [1971, Научно-популярный, DVB]
    Я и другие (Феликс Соболев) [1971, Научно-популярный, TVRip]
  • Биосфера! Время осознания. / (Biosphere! Time to apprehend) (Соболев Феликс Михайлович) [1974 г., Научно-популярный, SATRip]
  • На прицеле ваш мозг (Феликс Соболев, Виктор Олендер) [1984 г., Научно-популярный, психология, VHSRip]
    качество: DVB
    формат: MPG
    Видео: MPEG Video, Version 2, 5326 Кбит/сек, 720х576, 4:3, 25,000 кадров/сек, PAL
    Аудио: MPEG Audio, Layer 2, 256 Кбит/сек, 2 канала, 48,0 КГц

    MediaInfo

    Формат                                   : MPEG-PS
    Размер файла : 1,53 Гбайт
    Продолжительность : 38 м.
    Режим общего битрейта : Переменный
    Общий поток : 5695 Кбит/сек
    Видео
    Идентификатор : 224 (0xE0)
    Формат : MPEG Video
    Версия формата : Version 2
    Профиль формата : Main@Main
    Параметр BVOP формата : Да
    Параметр матрицы формата : Выборочная
    Параметр GOP формата : M=3, N=15
    Продолжительность : 38 м.
    Вид битрейта : Переменный
    Битрейт : 5326 Кбит/сек
    Максимальный битрейт : 15,0 Мбит/сек
    Ширина : 720 пикселей
    Высота : 576 пикселей
    Соотношение сторон : 4:3
    Частота кадров : 25,000 кадров/сек
    Стандарт вещания : PAL
    Цветовое пространство : YUV
    Субдискретизация насыщенности : 4:2:0
    Битовая глубина : 8 бит
    Тип развёртки : Чересстрочная
    Порядок развёртки : Верхнее поле первое
    Метод сжатия : С потерями
    Бит/(Пиксели*Кадры) : 0.514
    Временной код первого кадра : 00:00:00:00
    Оригинал временного кода : Group of pictures header
    Размер потока : 1,43 Гбайт (94%)
    Аудио
    Идентификатор : 192 (0xC0)
    Формат : MPEG Audio
    Версия формата : Version 1
    Профиль формата : Layer 2
    Продолжительность : 38 м.
    Вид битрейта : Постоянный
    Битрейт : 256 Кбит/сек
    Каналы : 2 канала
    Частота : 48,0 КГц
    Метод сжатия : С потерями
    Размер потока : 70,4 Мбайт (4%)

    Скриншоты

    [teatrix.ru].t18162.torrent 
    Торрент: Зарегистрирован [ 2016-03-17 00:42 ] · A5EEFA4913C6A0B138B2CE60D621A31ABFAD414A

    Скачать .torrent

    Скачать

    16 KB

    Статус: проверено
    Скачан: 0 раз
    Размер: 1.53 GB
    terms.php



  • Показать сообщения:    

    Текущее время: 10-Дек 06:05

    Часовой пояс: UTC + 3


    Вы не можете начинать темы
    Вы не можете отвечать на сообщения
    Вы не можете редактировать свои сообщения
    Вы не можете удалять свои сообщения
    Вы не можете голосовать в опросах
    Вы не можете прикреплять файлы к сообщениям
    Вы можете скачивать файлы