(Vocal, Orchestra) Мийо / Milhaud - Le Chateau Du Feu, La Mort D'un Tyran, 14 Jullet, Suite Provencale, Catalogue De Fleurs (Milhaud, Baudo) - 1991, FLAC (tracks+.cue) lossless


Статистика раздачи [Обновить пиров]
Размер:  213 MB   |    Зарегистрирован:  8 месяцев 22 дня   |    Скачан:  0 раз

Полного источника не было: Никогда

 
   
 
 
 

[Цитировать]

Darius Milhaud - Le Chateau Du Feu, La Mort D'un Tyran, Quatorze Juillet, Suite Provencale, Catalogue De Fleurs
Жанр: Vocal, Orchestra
Страна-производитель диска: France
Год издания диска: 1991
Издатель (лейбл): Le Chunt du Monde / Harmonia Mundi
Номер по каталогу: LDC2781069
Дата записи: 1953-1963
Аудиокодек: FLAC
Тип рипа: tracks+.cue
Битрейт аудио: lossless
Продолжительность: 46'07
Источник: скачано с
Наличие сканов в содержимом раздачи: да
Треклист:
Darius Milhaud (1892-1974)
01. Le Chateau Du Feu, cantata, op.338 (12:05)
Огненный замок, кантата на текст Ж. Кассу, для хора и оркестра, ор. 338, 1954
02. La Mort D'un Tyran, cantata, op.116 (6:24)
Смерть тирана, кантата на текст Ламприда-Дидро, для хора, ударных, флейты-пикколо, кларнета, тубы, ор.116, 1932.
03. Quatorze Juillet: Introduction Et Marche Funebre, op.153 (6:18)
Четырнадцатое июля, музыка к пьесе Ромена Роллана, op.153, 1936
04. Suite Provencale, op.152 (1936) (15:41)
Провансальская сюита, op.152, 1936
i. Animé ii. Très modéré iii. Modéré
iv. Vif v. Modéré vi. Vif vii. Lent ix. Vif
05. Catalogue De Fleurs, op.60 (5:37)
Каталог цветов на текст Л. Доде, ор. 60, 1920.
i. La Violette ii. Le Begonia iii. Les Fritillaires
iv. Les Jacinthes v. Les Crocus vi. Le Brachycome
vii. L'Eremurus
Исполнители:
Orchestre Philharmonique de Paris, Darius Milhaud - direction (1,2,3)
Orchestre de la Societe des Concerts du Conservatoire, Serge BAUDO - direction (4)
Irene Joachim, soprano/Ensemble instrumental dirigé par Maurice FRANCK (5)
Enregistre a Paris en 1956 (1, 2, 3), 1963 (4), 1953 (5)

Лог создания рипа

Exact Audio Copy V0.99 prebeta 5 from 4. May 2009
EAC extraction logfile from 20. October 2010, 2:00
Darius Milhaud / Darius Milhaud
Used drive : PLDS DVD-ROM DH-16D3S Adapter: 0 ID: 1
Read mode : Secure
Utilize accurate stream : Yes
Defeat audio cache : Yes
Make use of C2 pointers : No
Read offset correction : 6
Overread into Lead-In and Lead-Out : No
Fill up missing offset samples with silence : Yes
Delete leading and trailing silent blocks : No
Null samples used in CRC calculations : Yes
Used interface : Native Win32 interface for Win NT & 2000
Gap handling : Appended to previous track
Used output format : User Defined Encoder
Selected bitrate : 320 kBit/s
Quality : High
Add ID3 tag : No
Command line compressor : C:\Program Files\Exact Audio Copy\Flac\flac.exe
Additional command line options : -V -8 -T "artist=%a" -T "title=%t" -T "album=%g" -T "date=%y" -T "tracknumber=%n" -T "genre=%m" %s
TOC of the extracted CD
Track | Start | Length | Start sector | End sector
---------------------------------------------------------
1 | 0:00.32 | 12:05.45 | 32 | 54451
2 | 12:06.02 | 6:24.55 | 54452 | 83306
3 | 18:30.57 | 6:18.38 | 83307 | 111694
4 | 24:49.20 | 15:41.22 | 111695 | 182291
5 | 40:30.42 | 5:37.23 | 182292 | 207589
Track 1
Filename C:\Documents and Settings\Family\My Documents\My Music\EAC Rips\Darius Milhaud - Darius Milhaud\01 - Le Chateau Du Feu.wav
Pre-gap length 0:00:02.42
Peak level 85.1 %
Track quality 100.0 %
Test CRC 5444B756
Copy CRC 5444B756
Track not present in AccurateRip database
Copy OK
Track 2
Filename C:\Documents and Settings\Family\My Documents\My Music\EAC Rips\Darius Milhaud - Darius Milhaud\02 - La Mort D'un Tyran.wav
Pre-gap length 0:00:05.93
Peak level 85.3 %
Track quality 100.0 %
Test CRC 2AEFE77C
Copy CRC 2AEFE77C
Track not present in AccurateRip database
Copy OK
Track 3
Filename C:\Documents and Settings\Family\My Documents\My Music\EAC Rips\Darius Milhaud - Darius Milhaud\03 - Introduction Et Marche Funebre.wav
Pre-gap length 0:00:04.20
Peak level 91.7 %
Track quality 100.0 %
Test CRC 97EF5184
Copy CRC 97EF5184
Track not present in AccurateRip database
Copy OK
Track 4
Filename C:\Documents and Settings\Family\My Documents\My Music\EAC Rips\Darius Milhaud - Darius Milhaud\04 - Suite Provencale.wav
Pre-gap length 0:00:05.30
Peak level 68.0 %
Track quality 100.0 %
Test CRC C6A3B6C8
Copy CRC C6A3B6C8
Track not present in AccurateRip database
Copy OK
Track 5
Filename C:\Documents and Settings\Family\My Documents\My Music\EAC Rips\Darius Milhaud - Darius Milhaud\05 - Catalogue De Fleurs.wav
Pre-gap length 0:00:06.76
Peak level 39.1 %
Track quality 100.0 %
Test CRC FD41589F
Copy CRC FD41589F
Track not present in AccurateRip database
Copy OK
None of the tracks are present in the AccurateRip database
No errors occurred
End of status report

Содержание индексной карты (.CUE)

REM GENRE Classical
REM DATE 1991
REM DISCID 320ACF05
REM COMMENT "ExactAudioCopy v0.99pb5"
FILE "Darius Milhaud - Darius Milhaud\01 - Le Chateau Du Feu.wav" WAVE
TRACK 01 AUDIO
PREGAP 00:00:32
INDEX 01 00:00:00
TRACK 02 AUDIO
INDEX 00 11:59:50
FILE "Darius Milhaud - Darius Milhaud\02 - La Mort D'un Tyran.wav" WAVE
INDEX 01 00:00:00
TRACK 03 AUDIO
INDEX 00 06:20:40
FILE "Darius Milhaud - Darius Milhaud\03 - Introduction Et Marche Funebre.wav" WAVE
INDEX 01 00:00:00
TRACK 04 AUDIO
INDEX 00 06:13:15
FILE "Darius Milhaud - Darius Milhaud\04 - Suite Provencale.wav" WAVE
INDEX 01 00:00:00
TRACK 05 AUDIO
INDEX 00 15:34:40
FILE "Darius Milhaud - Darius Milhaud\05 - Catalogue De Fleurs.wav" WAVE
INDEX 01 00:00:00
INDEX 02 00:35:28
INDEX 03 01:04:05
INDEX 04 02:08:20
INDEX 05 02:37:60
INDEX 06 04:08:73
INDEX 07 04:40:48
Доп. информация: На диске записаны редкие произведения французского композитора XX века Дариюса Мийо - кантаты "Огненный замок", "Смерть тирана" и музыка к пьесе "14 июля" (исп. оркестр Парижской филармонии под управлением автора), а также "Провансальская сюита" (дирижёр Серж Бодо) и вокальный цикл "Каталог цветов".

О сочинениях

Кантата "Огненный замок" (1954) повествует в аллегорической форме об одном из самых страшных и бесчеловечных фактов истории — массовом уничтожении людей в печах фашистских крематориев. Тема близка «Уцелевшему из Варшавы» Шёнберга, но решена она Мийо совершенно индивидуально. Поэтический текст кантаты, принадлежащий Ж. Кассу - поэту французского Сопротивления,- раскрывает сюжет в лаконичных, овеянных поэзией образах символах, емких по выразительности, без конкретизации времени и места действия, и главное - с моментами философского обобщения. Поэт вводит символические фигуры Путника, Доброй женщины, которые в диалоге толкуют события наподобие Евангелиста в Страстях: "Скажи мне, Добрая женщина, Что это за стены, которые хрипят и кричат." "Это замок огня, Путник." "Скажи мне, Добрая женщина, что это за шествие. Печальное шествие, идущее по дороге? Что за странники в лохмотьях! и цепях?" "Это свободные люди, Путник. Не спрашивай меня более." Ритм траурного шествия пронизывает всю кантату. Гармонический же язык характеризуется типичными для Мийо жесткими, острыми, часто политональными наложениями, которые подчеркивают расслоение ткани на самостоятельные пласты. В центральной части выступает Страшный голос как символ палачей, и Хор жертв:
Отдайте ваши руки.
Вот наши руки.
Отдайте ваши глаза.
Вот наши глаза.
Дети! Отдайте ваших детей.
Вот наше молоко, наша кровь,
Вот наши высшие муки и страдания.
Откройте дверь! Входите и сгорайте!

Кроме символических фигур автор поэмы вводит хор, который трактуется как хор античной трагедии. Ему поручены две строфы, обрамляющие драматический диалог Страшного голоса и жертв. В этих строфах сосредоточен главный философский смысл поэмы:
Под покровом ночи.
Под покровом огня.
Через поля золы.
Через лес повешенных,
В руках тайное оружие,
В сердцах — гнев и любовь,
Без имени, без лица.
Без одежды, нагие,
Мы входим в наше
Последнее царство.
Откройте двери!
Откройте двери!

Кантата "Смерть тирана" (1932) — одно из драматичнейших сочинений Мийо. Вот что пишет о ней композитор: Текст мне указал Даниэль Галеви. Это страницы Ламприда, переведенные Дидро в его «Исследовании ритмической прозы», которые он цитирует как пример огромной ритмической силы, доходящей до взрывчатости. Автор перевел нам возгласы, проклятия римлян по поводу смерти императора Коммода, а также крики надежды в связи с избранием его наместника Пертинакса. Я написал это произведение для хора, ударных и 3 духовых инструментов, способных охватить наиболее обширное пространство: флейты-пикколо, кларнета и тубы. Отражение ритуала древности подобными средствами берет, видимо, свое начало еще от «Весны священной» Стравинского и поныне для многих композиторов обладает большой притягательной силой. Текст кантаты полон необычайной энергии и силы: он клеймит убийц, предателей, изменников, доносчиков, клеймит тирана, под пятой которого в страхе жил народ. В первом разделе кантаты звучат возгласы: «На свалку!», — перемежающиеся с обвинениями, которые бросают мертвому тирану; в последнем разделе, также подобно рефрену, повторяется фраза: «Пусть растерзают его тело!».
Среди неофольклорных опусов Мийо особое место принадлежит "Провансальской сюите" (1936) — произведению, в котором композитор с редким вдохновением воплотил средиземноморский дух, отразил свет, солнце Прованса, народ, его культуру. Мийо использовал в сюите несколько провансальских народных тем 18го века. Стремление передать народный колорит в музыке сочетается у Мийо с желанием отразить некоторые особенности французского музыкального Классицизма.
Написанная Мийо в том же 1936 году музыка к пьесе Ромена Роллана "Четырнадцатое июля", посвящённая событиям Великой французской революции, тоже вполне отражает дух того времени - она полна простых и маршевых тем.
"Каталог цветов" (1920) - сюита для голоса и семи инструментов, создана композитором в одно время с циклом "Каталог сельскохозяйственных машин". Сюита основана на тексте самого обычного каталога цветов (составленного родственником известного писателя - Люсьеном Доде), в котором описываются все достоинства того или иного вида цветов и который рассылают по почте (о чём поётся в последнем номере). Музыка, несмотря на странный текст, вполне приятная и поэтичная, тем не менее, по словам Мийо": Ни один критик не понял, что же побудило меня написать эти работы ... Первое исполнение и публика встретила с непониманием и даже враждебностью"
[teatrix.ru].t18165.torrent 
Торрент: Зарегистрирован [ 2016-03-17 00:42 ] · A1F03C9CE898EE7EF4E020F4DEF019055189A70B

Скачать .torrent

Скачать

18 KB

Статус: проверено
Скачан: 0 раз
Размер: 213 MB
terms.php



Быстрый ответ

Имя:

      
Для отправки сообщений необходимо включить JavaScript
Показать сообщения:    

Текущее время: 08-Дек 12:58

Часовой пояс: UTC + 3


Вы можете начинать темы
Вы можете отвечать на сообщения
Вы не можете редактировать свои сообщения
Вы не можете удалять свои сообщения
Вы не можете голосовать в опросах
Вы не можете прикреплять файлы к сообщениям
Вы можете скачивать файлы